Printable Version of Topic

Click here to view this topic in its original format

Metal Area - Extreme Music Portal _ New Releases _ Foothill Roots - Nature Resonates [demo] (2018)

Posted by: demenn Jul 11 2018, 10:54:34

https://metalarea.org/images/audiocovers/2018_Jul/acov_tid308069.jpg

*Artist: Foothill Roots
*Album: Nature Resonates [demo]
*Year: 2018
*Genre: Atmospheric Black Metal
*Country: Ireland
*Format: mp3@CBR320kbps
*Size: 59MB

Tracklist:
01. Intro 01:10
02. The Forest In Spring 10:44
03. Silver Under The Hills 07:18
04. Years Of Endless Rain 03:59
05. Tribute To Sun And Moon Dance - Hymne Til Freyja 02:24
******************************
Total playing time: 25:36

https://foothill-roots.bandcamp.com/album/nature-resonates-demo

Extended info


Technical info

Input File: 02 The Forest In Spring.mp3
Channels : 2
Sample Rate : 44100
Precision : 16-bit
Duration : 00:10:44.82 = 28436518 samples = 48361.4 CDDA sectors
File Size : 25.8M
Bit Rate : 320k
Sample Encoding: MPEG audio (layer I, II or III)
Comments :
Title=The Forest In Spring
Artist=Foothill Roots
Album=Nature Resonates
Tracknumber=02
Year=2018
Genre=Black Metal



[ Hidden Text ]

Posted by: Razorbladeswaltz Jul 11 2018, 22:44:23

mirror, pls

Posted by: demenn Jul 13 2018, 11:05:15

ЦИТАТА(Razorbladeswaltz @ Jul 11 2018, 22:44:23) *
mirror, pls

Прямая ссылка на https://bandcamp.com/download?id=766926065&ts=1531476169.1795927713&tsig=dfa6c350ac724c9e414a05f590331709&type=album

Posted by: isvili Jul 13 2018, 17:20:22

Utka raw atmospheric black metal 15.gif 15.gif 15.gif
Вернее Selezen

Powered by Invision Power Board
© Invision Power Services