Printable Version of Topic

Click here to view this topic in its original format

Metal Area - Extreme Music Portal _ New Releases _ Friday The 13Th: Part 2 - First Blood [ep] (2018)

Posted by: necroscum Jul 11 2018, 12:05:47

https://metalarea.org/images/audiocovers/2018_Jul/acov_tid308071.jpg

*Artist: Friday The 13Th: Part 2
*Album: First Blood [ep]
*Year: 2018
*Genre: Brutal Death Metal/Goregrind
*Country: United States
*Format: mp3@CBR320kbps
*Size: 24MB

Tracklist:
01. Stabbed 01:45
02. Leviathan 03:22
03. Horrendous Death 00:38
04. Garroted 02:00
05. Zombie Apocalypse (Mortician Cover) 02:49
******************************
Total playing time: 10:34

https://fridaythe13thpart2.bandcamp.com/album/first-blood

Technical info

Input File: 01. Stabbed.mp3
Channels : 2
Sample Rate : 44100
Precision : 16-bit
Duration : 00:01:45.44 = 4649728 samples = 7907.7 CDDA sectors
File Size : 4.31M
Bit Rate : 327k
Sample Encoding: MPEG audio (layer I, II or III)
Comments :
Title=Stabbed
Artist=Friday The 13th: Part 2
Album=First Blood
Tracknumber=1
Year=2018



[ Hidden Text ]

Posted by: HelenVaughan Jul 12 2018, 05:16:57

Ну прямо скажем, если под первой частью подразумевается вот это: Friday 13 - 2007 - Gore Pack VA

[ Hidden Text ]

то она поинтереснее была..


Powered by Invision Power Board
© Invision Power Services