Printable Version of Topic

Click here to view this topic in its original format

Metal Area - Extreme Music Portal _ New Releases _ Decomposed Carcasses - Terrorizor Of The Soul [single] (2018)

Posted by: necroscum Jul 11 2018, 12:29:10

https://metalarea.org/images/audiocovers/2018_Jul/acov_tid308073.jpg

*Artist: Decomposed Carcasses
*Album: Terrorizor Of The Soul [single]
*Year: 2018
*Genre: Goregrind
*Country: Canada
*Format: mp3@CBR320kbps
*Size: 3MB

Tracklist:
01. Terrorizor Of The Soul 01:13
******************************
Total playing time: 1:13

https://decomposedcarcasses.bandcamp.com/track/terrorizor-of-the-soul

Technical info

Input File: 01. Terrorizor Of The Soul.mp3
Channels : 2
Sample Rate : 44100
Precision : 16-bit
Duration : 00:01:13.90 = 3259166 samples = 5542.8 CDDA sectors
File Size : 3.04M
Bit Rate : 329k
Sample Encoding: MPEG audio (layer I, II or III)
Comments :
Title=Terrorizor Of The Soul
Artist=Decomposed Carcasses.
Year=2018



[ Hidden Text ]

Powered by Invision Power Board
© Invision Power Services