Printable Version of Topic

Click here to view this topic in its original format

Metal Area - Extreme Music Portal _ Archive _ Kammerjäger - Rising From Hell (2017)

Posted by: Samaritianin Jul 11 2018, 15:33:55

https://metalarea.org/images/audiocovers/2018_Jul/acov_tid308093.jpg

*Artist: Kammerjäger
*Album: Rising From Hell
*Year: 2017
*Genre: Speed/Thrash Metal
*Country: Spain
*Format: mp3@CBR320kbps
*Size: 72MB

Tracklist:
1. Defeat Those Bastards 02:38
2. Heavy Metal Attack 03:24
3. Slaughterhouse Chant 03:19
4. Nice to Kill You 02:44
5. We Won't Fall 03:18
6. Fallen Beers 04:38
7. Evil's Home 03:35
8. Anthem of Violence 03:38
9. Rise from Hell 04:29
******************************
Total playing time: 31:43

https://www.facebook.com/kammerjager.jaen/

Extended info
Masakre - Vocals
Juan Ángel - Guitars
Antonio Colmenero - Guitars
Dani Martinez - Bass
Germán Martínez - Drums​



Technical info

Input File: 05 - We Won\'t Fall.mp3
Channels : 2
Sample Rate : 44100
Precision : 16-bit
Duration : 00:03:19.42 = 8794554 samples = 14956.7 CDDA sectors
File Size : 7.98M
Bit Rate : 320k
Sample Encoding: MPEG audio (layer I, II or III)
Comments :
Title=We Won't Fall
Artist=Kammerjäger
Album=Rising From Hell
Tracknumber=5
Year=2017
Genre=Thrash Metal



[ Hidden Text ]

Posted by: Samaritianin Jul 11 2018, 20:10:56

Cloud Mail 320
[ Hidden Text ]

Posted by: hammer Jul 11 2018, 20:16:13

Зачет.Забрал.........

Posted by: DarkHorde Jul 12 2018, 02:52:24

По превью драйвовый музон, однозначно слушать metaler.gif

Posted by: russ777 Jul 12 2018, 19:26:19

Зачётный альбом, и местами что-то чертовски напоминает...
Релизёру 9.gif 9.gif

Posted by: Genuine Thrashiac Jul 13 2018, 01:03:42

russ777, Ранннингов? ГрейвДиггер?
Если бы добавить волынок - то Ин Экстремо напомнили бы кое-где.

Вообще не проникся. Ну, нету трэша тут. Спидо-Хэви (ИМХО) :\

Posted by: Diflock Jul 13 2018, 09:28:55

Шпанцы очень добротно нарезают и звучание мне понравилось, но отсутствие Thrash не позволило перерасти позитиву в нечто более серьезное. Как то так :/

Powered by Invision Power Board
© Invision Power Services