Printable Version of Topic

Click here to view this topic in its original format

Metal Area - Extreme Music Portal _ New Releases _ Malsanctum - Malsanctum (2018)

Posted by: Daale Jul 11 2018, 18:23:22

https://metalarea.org/images/audiocovers/2018_Jul/acov_tid308096.jpg

*Artist: Malsanctum
*Album: Malsanctum
*Year: 2018
*Genre: Funeral Doom Metal/Ambient
*Country: Canada
*Format: mp3@CBR320kbps
*Size: 109MB

Tracklist:
1. The Father 10:17
2. The Son 09:47
3. The Shattered Spirit 23:49
******************************
Total playing time: 43:53

https://ironboneheadproductions.bandcamp.com/album/malsanctum-malsanctum

Extended info
Promo stuff

IRON BONEHEAD PRODUCTIONS is proud to present MALSANCTUM's highly anticipated debut album, simply titled Malsanctum, on CD and vinyl LP formats.

MALSANCTUM hail from Canada and made its first public recording with the aptly titled demo Metamorbid Fetishization. Inconspicuously released in 2015 by IRON BONEHEAD, Metamorbid Fetishization presented MALSANCTUM in a cruelly stark and most frightening manner: a single 24-minute track of noisy ritualism, alternately spacious and suffocating, but most certainly uncomfortable. However, all that is trumped by the full-length Malsanctum.

Here split into three tracks - two at 10 minutes, and the closer at a staggering 24 minutes - MALSANCTUM's debut album is 45 minutes of obscene body worship. Defiantly challenging and sickeningly fascinating in equal measures, Malsanctum once again mangles trace elements of funeral doom and black metal into a malodorous miasma that defies both genres. It is as hypnotizing as it is hellish, fully utilizing those epic lengths with time-evaporating/halting inertia cum overload. The listener becomes lost because there was no path to begin with; obfuscation is thus replaced by pure punishment. But to simply listen to MALSANCTUM in general and Malsanctum in particular is not to just "listen," but to endure...and the light at the end of the tunnel was already snuffed out long ago.

The end will come...but not when you want it. Time, then, to enter MALSANCTUM's Malsanctum.


Technical info

Input File: 02 The Son.mp3
Channels : 2
Sample Rate : 44100
Precision : 16-bit
Duration : 00:09:46.69 = 25873161 samples = 44002 CDDA sectors
File Size : 26.6M
Bit Rate : 363k
Sample Encoding: MPEG audio (layer I, II or III)
Comments :
Title=The Son
Artist=Malsanctum
Album=Malsanctum LP/CD
Tracknumber=2



[ Hidden Text ]

Posted by: isvili Jul 13 2018, 17:18:05

Ужасно 12.gif

Powered by Invision Power Board
© Invision Power Services