Printable Version of Topic

Click here to view this topic in its original format

Metal Area - Extreme Music Portal _ New Releases _ Document 6 - Grind (R)Evolution (2019)

Posted by: necroscum Jun 11 2019, 20:11:26

http://metalarea.org/images/audiocovers/2019_Jun/acov_tid322905.jpg

*Artist: Document 6
*Album: Grind (R)Evolution
*Year: 2019
*Genre: Death Metal/Grindcore
*Country: Germany
*Format: mp3@CBR320kbps
*Size: 88MB

Tracklist:
01. Blod
02. Trump-Jong-Un
03. Monster
04. Erschiessen
05. Sexist
06. Volxmusick
07. Faust
08. Hardcore Holocaust
09. Ordinare Liebe
10. Zerstorung
11. Duivel
12. Chili
13. Heuchlerei
14. Hack
15. Tod
16. Kollision
17. Weihnacht
18. A for Arrogance
******************************
Total playing time: 33:46

https://document6.bandcamp.com/

Technical info

Input File: 02. Trump-Jong-Un.mp3
Channels : 2
Sample Rate : 44100
Precision : 16-bit
Duration : 00:01:35.96 = 4231660 samples = 7196.7 CDDA sectors
File Size : 4.43M
Bit Rate : 370k
Sample Encoding: MPEG audio (layer I, II or III)
Comments :
Title=Trump-Jong-Un
Artist=Document 6
Album=Grind (R)evolution
Tracknumber=2/18
Year=2019



[ Hidden Text ]

Powered by Invision Power Board
© Invision Power Services