Printable Version of Topic

Click here to view this topic in its original format

Metal Area - Extreme Music Portal _ New Releases _ Leopardeath - Setsugetsufuuka (2019)

Posted by: necroscum Jul 11 2019, 13:27:47

https://metalarea.org/images/audiocovers/2019_Jul/acov_tid324212.jpg

*Artist: Leopardeath
*Album: Setsugetsufuuka
*Year: 2019
*Genre: Melodic Death Metal
*Country: Japan
*Format: mp3@CBR320kbps
*Size: 118MB

Tracklist:
01. Maikaze
02. Hanaarashi
03. Beacon of Counterattack
04. Shoukei tensei
05. Sairuiu
06. Diva of moon
07. Koubou no Kanata
08. Oborozuki
09. Senshun no sourou
10. Darkness and Respond
11. Mokushiroku
******************************
Total playing time: 51:22

https://myspace.com/leopardeath
https://www.facebook.com/leopardeath/
https://www.youtube.com/watch?v=lxbChrchefo

Technical info

Input File: 02. Hanaarashi.mp3
Channels : 2
Sample Rate : 44100
Precision : 16-bit
Duration : 00:04:40.05 = 12350249 samples = 21003.8 CDDA sectors
File Size : 11.3M
Bit Rate : 323k
Sample Encoding: MPEG audio (layer I, II or III)
Comments :
Title=Hanaarashi
Artist=Leopardeath
Album=Setsugetsufuuka
Tracknumber=2/11
Year=2019
Genre=9
Discnumber=1/1



[ Hidden Text ]

Posted by: troll_swamp Jul 11 2019, 19:28:14

Всегда отношусь к группам их Японии с интересом, и тут ребята оказались молодцами, качественно и довольно таки драйвово, понятно что никто уже Америку не открывает, но слушать приятно и выключать не охота. Кому-то конечно не понравится, кто-то найдёт для этого причины дабы выставить себя знающим человеком, как говорится каждому своё, это всё вкусовщина, играют ребята добротно и интересно и пусть делают это как можно дольше, ведь кому-то это понравится и настроит на позитивный лад, а может и поддержит в трудную минуту, хорошая музыка. 27.gif

Posted by: AHBAnep Jul 18 2019, 12:58:18

Если бы не чистоголосые завывания японки, было бы совсем хорошо.

Posted by: DenisKov Jul 25 2019, 10:55:27

Баба конечно все окончательно слила, но и без того все третьесортное.

Powered by Invision Power Board
© Invision Power Services