Printable Version of Topic

Click here to view this topic in its original format

Metal Area - Extreme Music Portal _ Archive _ Burial Remains - Trinity Of Deception (2019)

Posted by: Samaritianin Jul 11 2019, 14:25:53

https://metalarea.org/images/audiocovers/2019_Jul/acov_tid324219.jpg

*Artist: Burial Remains
*Album: Trinity Of Deception
*Year: 2019
*Genre: Old School Death Metal
*Country: Netherlands
*Format: mp3@CBR320kbps
*Size: 55MB

Tracklist:
01. Crucifixion of the Vanquished
02. They Crawl
03. Trinity of Deception
04. March of the Undead
05. Burn with Me
06. Days of Dread
07. Tormentor
******************************
Total playing time: 25:15

https://burialremains.bandcamp.com/album/trinity-of-deception-death-metal
https://www.facebook.com/burialremains/

Extended info
Sven - Vocals (FLESHCRAWL)
Wim - Guitar (GRIM FATE, BOAL)
Philippus - Guitar and bass (DIMAEON, BOAL)
Danny - Drums (DISINTEGRATE, DIMAEON)



Technical info

Input File: 04. March of the Undead.mp3
Channels : 2
Sample Rate : 44100
Precision : 16-bit
Duration : 00:03:25.34 = 9055362 samples = 15400.3 CDDA sectors
File Size : 8.47M
Bit Rate : 330k
Sample Encoding: MPEG audio (layer I, II or III)
Comments :
Title=March of the Undead
Artist=Burial Remains
Album=Trinity of Deception
Tracknumber=4/7
Year=2019
Genre=9
Discnumber=1/1



[ Hidden Text ]

Posted by: Samaritianin Jul 11 2019, 15:52:31

Cloud Mail 320
[ Hidden Text ]

Posted by: neoatheist Jul 11 2019, 15:54:44

Хорошо, но маловато.

Posted by: defamer666 Jul 11 2019, 19:00:32


Дебютный релиз по стопам скандинавских товарищей - на вокале Sven Gross,фронтмен из немецкого культового дэт-коллектива FLESHCRAWL dwarf-1.gif dwarf-1.gif dwarf-1.gif

P.S Всё по канонам олдскульной шведятины - но особого размаха и хитовости не ощутил,хотя слушается неплохо.

Powered by Invision Power Board
© Invision Power Services