Printable Version of Topic

Click here to view this topic in its original format

Metal Area - Extreme Music Portal _ New Releases _ Riffcoven - Cursed [ep] (2019)

Posted by: necroscum Jul 11 2019, 14:34:40

https://metalarea.org/images/audiocovers/2019_Jul/acov_tid324220.jpg

*Artist: Riffcoven
*Album: Cursed [ep]
*Year: 2019
*Genre: Stoner/Doom Metal
*Country: Brazil
*Format: mp3@CBR320kbps
*Size: 42MB

Tracklist:
01. Feiticeiros Do Riff 05:59
02. Cursed 05:47
03. Dope Riders 06:35
******************************
Total playing time: 18:21

https://www.facebook.com/riffcoven/

Technical info

Input File: 02. Cursed.mp3
Channels : 2
Sample Rate : 44100
Precision : 16-bit
Duration : 00:05:47.42 = 15321398 samples = 26056.8 CDDA sectors
File Size : 14.0M
Bit Rate : 323k
Sample Encoding: MPEG audio (layer I, II or III)
Comments :
Title=Cursed
Artist=Riffcoven
Album=Cursed
Tracknumber=2/3
Year=2019
Genre=17
Discnumber=1/1



[ Hidden Text ]

Powered by Invision Power Board
© Invision Power Services