Printable Version of Topic

Click here to view this topic in its original format

Metal Area - Extreme Music Portal _ New Releases _ Ktharsys - Tras Las Huellas (2019)

Posted by: Samaritianin Jul 11 2019, 21:11:11

https://metalarea.org/images/audiocovers/2019_Jul/acov_tid324277.jpg

*Artist: Ktharsys
*Album: Tras Las Huellas
*Year: 2019
*Genre: Heavy/Power Metal
*Country: Venezuela
*Format: mp3@CBR320kbps
*Size: 115MB

Tracklist:
1. Tu Ausencia
2. ¿Sueño o Realidad?
3. Ángel Guardián
4. Camino Sin Tí
5. Libertad
6. Ktharsys
7. Retorna A Mi Ser
8. Caminar Al Vacío
9. Eres La Guía
10. Recuerdos
11. Tras Las Huellas
******************************
Total playing time: 48:37

https://www.facebook.com/Ktharsys-142118342501311/

Extended info
Moises Vera: Voz
Leandro Melendez: Guitarra
Martha Yánez: Guitarra
Luis Rivas: Bateria
Jorge Álvarez: Bajo y Secuencias


Technical info

Input File: 04 Camino Sin Ti.mp3
Channels : 2
Sample Rate : 44100
Precision : 16-bit
Duration : 00:04:43.84 = 12517168 samples = 21287.7 CDDA sectors
File Size : 11.6M
Bit Rate : 327k
Sample Encoding: MPEG audio (layer I, II or III)
Comments :
Title=Camino Sin Ti
Artist=Ktharsys
Album=Tras Las Huellas
Tracknumber=04
Year=2019



[ Hidden Text ]

Posted by: Andrew Jul 11 2019, 21:53:11

https://soundcloud.com/ktharsys-banda/libertad

https://soundcloud.com/jorge-lvarez-4/ktharsys-caminar-al-vacio-musical-production-recording-mixing-mastering

Posted by: timteam88 Jul 27 2019, 16:25:56

FLAC: https://yadi.sk/d/B5tJth7xsMCoFw

Powered by Invision Power Board
© Invision Power Services