Printable Version of Topic

Click here to view this topic in its original format

Metal Area - Extreme Music Portal _ Archive _ Gyze - Asian Chaos (2019)

Posted by: Samaritianin Jul 12 2019, 00:09:10

https://metalarea.org/images/audiocovers/2019_Jul/acov_tid324280.jpg

*Artist: Gyze
*Album: Asian Chaos
*Year: 2019
*Genre: Melodic Death Metal
*Country: Japan
*Format: mp3@CBR320kbps
*Size: 121MB

Tracklist:
1. Far Eastern Land 03:12
2. Asian Chaos 06:36
3. Eastern Spirits 05:50
4. King Kamuy 00:38
5. Dragon Calling 05:01
6. Camellia 04:00
7. Japanese Elegy 05:28
8. The Rising Dragon 04:05
9. White Territories 04:01
10. 1945 Hiroshima 05:16
11. Asian Chaos (Far Eastern Mix) 06:31
12. Kakumei 02:22
******************************
Total playing time: 53:00

https://www.facebook.com/gyzejp

Extended info
Aruta Bass, Vocals
Han-nya Drums
Shinkai Guitars, Programming
Ryoji Vocals, Guitars, Keyboards (2011-present)
See also: ex-Suicide Heaven


Technical info

Input File: 03. Eastern Spirits.mp3
Channels : 2
Sample Rate : 44100
Precision : 16-bit
Duration : 00:05:49.56 = 15415728 samples = 26217.2 CDDA sectors
File Size : 14.0M
Bit Rate : 320k
Sample Encoding: MPEG audio (layer I, II or III)
Comments :
Title=Eastern Spirits
Artist=Gyze
Album=Asian Chaos
Tracknumber=03/12
Year=2019
Discnumber=1/1



[ Hidden Text ]

Posted by: Samaritianin Jul 12 2019, 01:05:42

Cloud Mail 320
[ Hidden Text ]

Posted by: vosmidesijatye Jul 12 2019, 08:53:43

Дебют был шикарен.

Posted by: neoatheist Jul 12 2019, 09:50:15

Ура! banana.gif 20.gif 19.gif

Posted by: Andrew Jul 12 2019, 11:17:51

ЦИТАТА(Samaritianin @ Jul 12 2019, 02:09:10) *
*Genre: Melodic Death Metal

Power с харшевым вокалом. Не знаю, как по мне, так эти все однотипные японские группы, использующие в основной массе за основу гитарные соло поливалочки, без четких жестких гитарных риффов, присущих для мелодеза - как то примитивны и однообразны. Лично я такое творчество за мелодез не считаю...

Posted by: vosmidesijatye Jul 12 2019, 11:22:55

Слушай, ну дебют то у них был МДМ знатный.

Но то было когда...

Posted by: Foneg Jul 12 2019, 13:37:17

ЦИТАТА(Andrew @ Jul 12 2019, 13:17:51) *
Power с харшевым вокалом. Не знаю, как по мне, так эти все однотипные японские группы, использующие в основной массе за основу гитарные соло поливалочки, без четких жестких гитарных риффов, присущих для мелодеза - как то примитивны и однообразны. Лично я такое творчество за мелодез не считаю...


Ток хотел плюсануть и сказать, что напоминают чобоклонов Norther - ничего интересного, околоагрессия без изюма ваще.

Posted by: vosmidesijatye Jul 12 2019, 13:38:30

ЦИТАТА(Foneg @ Jul 12 2019, 16:37:17) *
околоагрессия


О, новое слово в лексикончик 1488.gif 25.gif

Posted by: neoatheist Jul 12 2019, 15:24:12

К сожалению, альбом вышел наиболее сопливым в их дискографии.

Posted by: Aectan Jul 12 2019, 19:15:37

Собственно, хороший альбом, мелодически сильный и самобытный. Такие вещи вообще не нужно сравнивать с европейским мдм-ом, это другой колорит, другой подход к музыке. А композиционно альбомчик ровный, в меру сложный и легко воспринимаемый. И чисто с личной точки зрения я бы поставил его повыше 80% совершенно копирообразного европейского мдм-а. Я говорю не про интересные и ведущие команды, а именно про 80-90% остальной массы.

Posted by: Andrew Jul 12 2019, 21:45:30

ЦИТАТА(Aectan @ Jul 12 2019, 21:15:37) *
И чисто с личной точки зрения я бы поставил его повыше 80% совершенно копирообразного европейского мдм-а.

Ну, начнем с того, что данный сабж все же не мдм...

Posted by: Aectan Jul 13 2019, 14:36:02

ЦИТАТА(Andrew @ Jul 13 2019, 01:45:30) *
Ну, начнем с того, что данный сабж все же не мдм...

да, тут и павер есть, и ещё всяких элементов понамешано.

Posted by: russ777 Jul 14 2019, 08:33:26

За Хиросиму какая-то сильно весёлая песенка...жгут японцы..

Posted by: DragonDragon Jul 14 2019, 13:37:14

Тут в соседних темах мистер Турилли пыжится, а эти пацаны умеют не хуже. У них не просто соло на своем месте, в структуре песни, у них соло просто на всю песню. Как затеят пилить, так и не останавливаются до конца песни, похоже это Мальмстин на них повлиял, он же популярен был в Японии.
У меня в плеере задержался их прошлый альбом, а так же пару альбомов Zemeth, Veiled in Scarlet.

Posted by: DenisKov Jul 21 2019, 07:08:56

Третьесорт, кроме дебютника банда из себя ничего не представляет.

Posted by: timteam88 Jul 27 2019, 15:46:23

FLAC: [ Hidden Text ]

Powered by Invision Power Board
© Invision Power Services