Printable Version of Topic

Click here to view this topic in its original format

Metal Area - Extreme Music Portal _ New Releases _ Wait - We Are In Transit [ep] (2019)

Posted by: Samaritianin Jul 12 2019, 01:04:08

https://metalarea.org/images/audiocovers/2019_Jul/acov_tid324281.jpg

*Artist: Wait
*Album: We Are In Transit [ep]
*Year: 2019
*Genre: Progressive Death Metal
*Country: United States
*Format: mp3@CBR320kbps
*Size: 56MB

Tracklist:
01. Wonder 08:51
02. Mushroom Song 08:36
03. Tomorrow Awaits 06:57
******************************
Total playing time: 24:24

https://wait.bandcamp.com/
https://www.facebook.com/wait.band.official/

Extended info
Charlie Eron - guitar
Max Phelps - vocals
Alex Weber - bass
Anup Sastry - drums


Technical info

Input File: 03 - Tomorrow Awaits.mp3
Channels : 2
Sample Rate : 44100
Precision : 16-bit
Duration : 00:06:57.51 = 18412279 samples = 31313.4 CDDA sectors
File Size : 17.0M
Bit Rate : 325k
Sample Encoding: MPEG audio (layer I, II or III)
Comments :
Title=Tomorrow Awaits
Artist=WAIT
Album=We Are in Transit
Tracknumber=3
Year=2019
Genre=Metal
Discnumber=1



[ Hidden Text ]

Posted by: AHBAnep Jul 12 2019, 08:36:25


Сильно Psychedelic. Что-то в этом есть.

Posted by: Foneg Jul 12 2019, 13:42:10

ЦИТАТА(AHBAnep @ Jul 12 2019, 10:36:25) *

Сильно Psychedelic. Что-то в этом есть.


Я включил и не смог остановиться - на одном дыхании пролетела запись, хотя реально на 90% из диссонансов состоит.

Posted by: Nomore Jul 13 2019, 13:43:50

Отличный релиз. Жду полноформатник.

Posted by: mittal Jul 13 2019, 16:52:39

По первому прогону не понял, по второму вызвало отторжение.

Powered by Invision Power Board
© Invision Power Services