Printable Version of Topic

Click here to view this topic in its original format

Metal Area - Extreme Music Portal _ Archive _ Nightfucker - Nightfucker (2019)

Posted by: Samaritianin Jul 12 2019, 01:51:33

https://metalarea.org/images/audiocovers/2019_Jul/acov_tid324282.jpg

*Artist: Nightfucker
*Album: Nightfucker
*Year: 2019
*Genre: Sludge/Doom Metal
*Country: Canada
*Format: mp3@CBR320kbps
*Size: 84MB

Tracklist:
01. Temptation's Curse 08:15
02. Worthless Spirit 07:35
03. Addiction Sentence 09:01
04. Death Beset 11:31
******************************
Total playing time: 36:22

https://sentientruin.bandcamp.com/album/nightfucker

Extended info
Adam Bass, Vocals
See also: Ceremonial Bloodbath, Deathwinds, Radioactive Vomit, ex-Cambodia, ex-Goatsblood, ex-Reikhkrieg, ex-Fear of Tomorrow, ex-Fuck Off!, ex-Hevybevan, ex-Only One Dead
Nick Drums
See also: Radioactive Vomit, ex-Reikhkrieg
Dom Guitars
See also: ex-Moss


Technical info

Input File: 02 - Worthless Spirit.mp3
Channels : 2
Sample Rate : 44100
Precision : 16-bit
Duration : 00:07:35.84 = 20102324 samples = 34187.6 CDDA sectors
File Size : 18.4M
Bit Rate : 323k
Sample Encoding: MPEG audio (layer I, II or III)
Comments :
Title=Worthless Spirit
Artist=Nightfucker
Album=Nightfucker
Tracknumber=2
Year=2019
Genre=Metal
Discnumber=1



[ Hidden Text ]

Posted by: vosmidesijatye Jul 12 2019, 10:01:01

Правильный сладж. Мрачный, медленный саунд, едкий, болезненный вокал.

Послушать было приятственно.

Posted by: TDM Jul 12 2019, 20:22:44

Ночной ё**рь или е**щий ночь? smile4.gif

Posted by: vosmidesijatye Jul 13 2019, 13:13:24

Второе.

Posted by: KVRT Jul 18 2019, 21:35:18

ЦИТАТА(vosmidesijatye @ Jul 13 2019, 12:13:24) *
Второе.

а вот - шышъ..
@бака-ночь

з.ы. прям везде слиплось headcrab.png

Posted by: vosmidesijatye Jul 18 2019, 21:37:03

ЦИТАТА(KVRT @ Jul 19 2019, 00:35:18) *
а вот - шышъ..
@бака-ночь


Да тут можно оба варика смело использовать bye.gif

Posted by: Samaritianin Jul 18 2019, 22:00:06

vosmidesijatye,

ЦИТАТА
Послушать было приятственно.

А спасибки от тебя не наблюдается.Свинство однако.

Posted by: KVRT Jul 18 2019, 22:59:15

ЦИТАТА(vosmidesijatye @ Jul 18 2019, 20:37:03) *
Да тут можно оба варика смело использовать bye.gif

имхо это вашпе - некая анаграмма на "ЩелкунчикЪ" (nut cracker)

Powered by Invision Power Board
© Invision Power Services