Printable Version of Topic

Click here to view this topic in its original format

Metal Area - Extreme Music Portal _ Archive _ Autophagy - Demo [demo] (2018)

Posted by: Ambercandle Jul 12 2019, 02:12:01

http://metalarea.org/images/audiocovers/2019_Jul/acov_tid324283.jpg

*Artist: Autophagy
*Album: Demo [demo]
*Year: 2018
*Genre: Death Metal
*Country: United States
*Format: mp3@CBR320kbps
*Size: 34MB

Tracklist:
1. Intro / Lure of the Labyrinth 04:56
2. Charnel Hall 03:57
3. Beneath the Moss, Between the Roots 03:17
4. Supposed to Rot (Nihilist cover) 01:58
******************************
Total playing time: 14:08

https://autophagypdx.bandcamp.com/

Technical info

Input File: Autophagy - demo - 02 Charnel Hall.mp3
Channels : 2
Sample Rate : 44100
Precision : 16-bit
Duration : 00:03:57.07 = 10454963 samples = 17780.5 CDDA sectors
File Size : 9.65M
Bit Rate : 326k
Sample Encoding: MPEG audio (layer I, II or III)
Comments :
Title=Charnel Hall
Artist=Autophagy
Album=demo
Tracknumber=2
Year=2018



[ Hidden Text ]

Posted by: russ777 Jul 14 2019, 08:39:03

Аутофагия сохраняет здоровье и продлевает жизнь ! genius.gif
Сабж "зашёл" ,хорошая демка,если так и далее пойдут, то будет гуд !! metaler.gif качевсвенный олдскул !
Релизёру 9.gif 9.gif

Powered by Invision Power Board
© Invision Power Services