Printable Version of Topic

Click here to view this topic in its original format

Metal Area - Extreme Music Portal _ New Releases _ Implement - Bleeding Alone (2019)

Posted by: Samaritianin Jul 12 2019, 02:15:37

https://metalarea.org/images/audiocovers/2019_Jul/acov_tid324284.jpg

*Artist: Implement
*Album: Bleeding Alone
*Year: 2019
*Genre: Death Metal
*Country: Brazil
*Format: mp3@CBR320kbps
*Size: 87MB

Tracklist:
1. Wrekage (Intro) 01:09 instrumental
2. Infernum Brothel 02:10
3. Worm in My Brain 02:49
4. Bleeding Alone 03:32
5. Grave of Desire 04:25
6. Pentecostal Insanity 03:23
7. The Keys of Hell 03:32
8. Red Flag 04:42
9. Great Terror 03:55
10. Catacomb 03:41
11. Mirror of Ilusion 04:11
******************************
Total playing time: 37:29

https://www.facebook.com/implementband

Extended info
Angelo Acácio Drums
Marcio "Oicram" Kizar Guitars
Ivan Morderhay Vocals, Bass


Technical info

Input File: 05 - Grave of Desire.mp3
Channels : 2
Sample Rate : 44100
Precision : 16-bit
Duration : 00:04:23.51 = 11620835 samples = 19763.3 CDDA sectors
File Size : 10.7M
Bit Rate : 324k
Sample Encoding: MPEG audio (layer I, II or III)
Comments :
Title=Grave of Desire
Artist=Implement
Album=Bleeding Alone
Tracknumber=5
Year=2019
Discnumber=1



[ Hidden Text ]

Powered by Invision Power Board
© Invision Power Services