Printable Version of Topic

Click here to view this topic in its original format

Metal Area - Extreme Music Portal _ New Releases _ I Tore My Eyes Out - Damn! I Hate Everyone At This Party (2019)

Posted by: Samaritianin Jul 12 2019, 03:07:14

https://metalarea.org/images/audiocovers/2019_Jul/acov_tid324285.jpg

*Artist: I Tore My Eyes Out
*Album: Damn! I Hate Everyone At This Party
*Year: 2019
*Genre: Slamming Brutal Death Metal
*Country: Russian Federation
*Format: mp3@CBR320kbps
*Size: 48MB

Tracklist:
1. $lutsmoneydeath (intro) 00:49
2. To the Pit (feat Pertev of Intestine Autopsy) 02:41
3. Killa in Da' Ark (feat Danny of Windigo) 02:35
4. C.I.T.G.O (feat Rori of Machine Anatomy) 01:42
5. Crowdhunt 02:48
6. She call me sicko (feat Isaac of Cyst; Foreskin Decapitation) 02:34
7. Grinder (feat Luke of Throat Shank) 02:57
8. Whore to the Gore (feat Mictain of Path) 03:21
9. Ruthless (outro) 00:45
******************************
Total playing time: 20:12

https://itoremyeyes0ut.bandcamp.com/album/damn-i-hate-everyone-at-this-party
https://www.facebook.com/ItoreMyeyesOut/

Extended info
All instrumentals by Daniel Louder


Technical info

Input File: 05 - Crowdhunt.mp3
Channels : 2
Sample Rate : 44100
Precision : 16-bit
Duration : 00:02:48.55 = 7433099 samples = 12641.3 CDDA sectors
File Size : 6.86M
Bit Rate : 326k
Sample Encoding: MPEG audio (layer I, II or III)
Comments :
Title=Crowdhunt
Artist=I tore My eyes Out
Album=Damn! I Hate Everyone at This Party
Tracknumber=5
Year=2019
Genre=Metal
Discnumber=1



[ Hidden Text ]

Powered by Invision Power Board
© Invision Power Services