Printable Version of Topic

Click here to view this topic in its original format

Metal Area - Extreme Music Portal _ New Releases _ Aeon Patronist - Mortal Prosternation [ep] (2018)

Posted by: Samaritianin Jul 12 2019, 03:50:15

https://metalarea.org/images/audiocovers/2019_Jul/acov_tid324286.jpg

*Artist: Aeon Patronist
*Album: Mortal Prosternation [ep]
*Year: 2018
*Genre: Progressive Death Metal
*Country: France
*Format: mp3@CBR320kbps
*Size: 57MB

Tracklist:
1. Intro 00:45
2. Katadesmos 04:18
3. Seeds from a Burning Land 06:25
4. L'ineffable 07:52
5. Through the Paths of Delusion 05:11
******************************
Total playing time: 24:31

https://aeonpatronist.bandcamp.com/album/mortal-prosternation
https://www.facebook.com/AeonPatronist

Extended info
Tom Leichnig Drums
Alexandre Thiong-Sion Guitars, Vocals
Robin Siestrunck Bass


Technical info

Input File: 03 - Seeds from a Burning Land.mp3
Channels : 2
Sample Rate : 44100
Precision : 16-bit
Duration : 00:06:25.38 = 16995214 samples = 28903.4 CDDA sectors
File Size : 15.6M
Bit Rate : 323k
Sample Encoding: MPEG audio (layer I, II or III)
Comments :
Title=Seeds from a Burning Land
Artist=Aeon Patronist
Album=Mortal Prosternation
Tracknumber=3
Year=2018
Genre=Metal
Discnumber=1



[ Hidden Text ]

Posted by: neoatheist Jul 12 2019, 09:47:17

Прогрессивный Бехемот crazy.gif

Posted by: avather Jul 14 2019, 00:12:31

ЦИТАТА(neoatheist @ Jul 12 2019, 12:47:17) *
Прогрессивный Бехемот crazy.gif

Это плохо или хорошо?

Powered by Invision Power Board
© Invision Power Services