Printable Version of Topic

Click here to view this topic in its original format

Metal Area - Extreme Music Portal _ New Releases _ Alkymenia - Libertad (2019)

Posted by: Samaritianin Jul 12 2019, 05:25:19

https://metalarea.org/images/audiocovers/2019_Jul/acov_tid324287.jpg

*Artist: Alkymenia
*Album: Libertad
*Year: 2019
*Genre: Thrash Metal
*Country: Brazil
*Format: mp3@CBR320kbps
*Size: 85MB

Tracklist:
1. Dancing In Hell 03:54
2. Another World Is Possible 03:34
3. Sus 03:21
4. Dead Birds 05:04
5. We Are Not Made By Emotions 03:40
6. Being Who I Am 03:03
7. Mediocre Games 03:26
8. Day By Day 03:08
9. Wild And Cold 03:07
10. Arguments Of Shit 03:36
******************************
Total playing time: 35:53

http://www.alkymenia.com/music
https://www.facebook.com/alkymeniaofficial

Extended info
Lalo Bass, Vocals
See also: ex-Kinto Karma, ex-Psych Acid
Dennis Kreimer Drums
Sandro Silva Guitars
See also: Kavla, ex-Kinto Karma



Technical info

Input File: 02 - Another World Is Possible.mp3
Channels : 2
Sample Rate : 44100
Precision : 16-bit
Duration : 00:03:34.40 = 9454952 samples = 16079.9 CDDA sectors
File Size : 8.93M
Bit Rate : 333k
Sample Encoding: MPEG audio (layer I, II or III)
Comments :
Title=Another World Is Possible
Artist=Alkymenia
Album=Libertad
Tracknumber=2
Year=2019
Genre=Metal
Discnumber=1



[ Hidden Text ]

Posted by: Andrew Jul 12 2019, 10:42:04

https://soundcloud.com/alkymeniaofficial - Preview of all 10 tracks

Powered by Invision Power Board
© Invision Power Services