Printable Version of Topic

Click here to view this topic in its original format

Metal Area - Extreme Music Portal _ New Releases _ Hiatus - Old Fashioned Shit... For Consumers [compilation] (1995)

Posted by: spazm Jul 12 2019, 10:38:52

https://metalarea.org/images/audiocovers/2019_Jul/acov_tid324296.jpg

*Artist: Hiatus
*Album: Old Fashioned Shit... For Consumers [compilation]
*Year: 1995
*Genre: Crust/Grindcore
*Country: Belgium
*Format: mp3@CBR320kbps
*Size: 154MB

Tracklist:
01. Confusion Inside My Head (2:18)
02. P.S.A. (1:34)
03. Bob / Inside Death II (3:22)
04. Nuclear World (2:51)
05. No Answers To Lead Me (2:01)
06. A Day (1:41)
07. Show Of Pain (1:11)
08. No Religion, No Cult, No Sect (0:33)
09. No Use (1:20)
10. War Is Obscene (1:31)
11. You Really Make Me Sick (0:21)
12. Black Screen (3:15)
13. Disastrous Luxury Results (1:33)
14. Victims Of Life (1:23)
15. Entombed Universe (3:00)
16. Devastation Of Life (1:56)
17. No Religion (Pt. 2) (0:43)
18. Inertia (2:10)
19. Freedom Conquest (2:04)
20. Believer Consciousness (1:56)
21. Bloodsports (2:12)
22. Have A Free Life (2:14)
23. Way Of Doom (2:11)
24. Purulent Stench Of War (1:32)
25. Equality - Conception Of Life (5:43)
26. Inside Death (7:20)
27. Disarm The Bastards (2:53)
28. Bloodshot (2:07)
29. Relief IV (1:39)
30. Mindless Fucked Up Movement (2:41)
******************************
Total playing time: 1:07:15

Extended info
Бельгийская легенда crust/punk/grind-сцены, в свое время крайне популярная в узких кругах ограниченных людей). Отлично подойдет для тех, кто на безрыбье часто переслушивает ранний Extreme Noise Terror.

В комплекте идут полные сканы кассеты от TKA rec (из личной коллекции) и немного сетевых картинок.


Technical info

Input File: 01 Confusion inside my head.mp3
Channels : 2
Sample Rate : 44100
Precision : 16-bit
Duration : 00:02:18.92 = 6126460 samples = 10419.1 CDDA sectors
File Size : 5.55M
Bit Rate : 320k
Sample Encoding: MPEG audio (layer I, II or III)
Comments :
Title=Confusion Inside My Head
Artist=Hiatus
Album=Old Fashioned Shit for Consumers
Tracknumber=1
Genre=Other



[ Hidden Text ]

Posted by: Герб Jul 12 2019, 23:10:00


Powered by Invision Power Board
© Invision Power Services