Printable Version of Topic

Click here to view this topic in its original format

Metal Area - Extreme Music Portal _ New Releases _ Tom Gekas - Blasphemy (2019)

Posted by: necroscum Jul 12 2019, 13:56:05

https://metalarea.org/images/audiocovers/2019_Jul/acov_tid324304.jpg

*Artist: Tom Gekas
*Album: Blasphemy
*Year: 2019
*Genre: Depressive Black Metal
*Country: Germany
*Format: mp3@CBR320kbps
*Size: 86MB

Tracklist:
01. Astaroth is Coming 04:01
02. Blasphemy 04:46
03. Religion = War 03:36
04. Cruzifix 03:51
05. Satanist 03:49
06. Depression is a Demon, Pt. 1 11:12
07. Depression is a Demon, Pt. 2 05:46
******************************
Total playing time: 37:01

https://tomgekas.bandcamp.com/album/blasphemy

Technical info

Input File: 02. Blasphemy.mp3
Channels : 2
Sample Rate : 44100
Precision : 16-bit
Duration : 00:04:46.97 = 12655553 samples = 21523 CDDA sectors
File Size : 11.6M
Bit Rate : 325k
Sample Encoding: MPEG audio (layer I, II or III)
Comments :
Title=Blasphemy
Artist=Tom Gekas
Album=Blasphemy
Tracknumber=2/7
Year=2019



[ Hidden Text ]

Posted by: craP_cillA Jul 12 2019, 17:45:43

"Depressive Suicidal Black Metal"

Posted by: isvili Jul 13 2019, 07:37:37

Стиль: Symphonic Black Metal 25.gif 25.gif 25.gif Не-а!!!

Posted by: Aectan Jul 13 2019, 21:19:33

Идиотизм какой-то, где они ещё такого левого вокалёра нарыли 15.gif

Powered by Invision Power Board
© Invision Power Services