Printable Version of Topic

Click here to view this topic in its original format

Metal Area - Extreme Music Portal _ Archive _ Shadowstrike - Legends Of Human Spirit (2019)

Posted by: necroscum Jul 12 2019, 14:06:08

https://metalarea.org/images/audiocovers/2019_Jul/acov_tid324305.jpg

*Artist: Shadowstrike
*Album: Legends Of Human Spirit
*Year: 2019
*Genre: Power Metal
*Country: United States
*Format: mp3@CBR320kbps
*Size: 155MB

Tracklist:
01. Heart for Yearning Journey 07:01
02. Ascension 01:35
03. Fly with Me 04:52
04. Fields of Valour 06:08
05. The Fiery Seas and Icy Winds 08:11
06. Where Sleeping Gods Await 07:39
07. Forever as One 05:07
08. Voice in the Night 07:47
09. A Dream of Stars 06:31
10. Gales of Winter 10:15
******************************
Total playing time: 1:05:06

https://www.facebook.com/ShadowStrikePower
https://soundcloud.com/shadowstrikepower
https://shadowstrike.bandcamp.com/album/legends-of-human-spirit
https://www.youtube.com/watch?v=JxJBeCmFR6o

Technical info

Input File: 02. Ascension.mp3
Channels : 2
Sample Rate : 44100
Precision : 16-bit
Duration : 00:01:35.15 = 4195939 samples = 7135.95 CDDA sectors
File Size : 4.40M
Bit Rate : 370k
Sample Encoding: MPEG audio (layer I, II or III)
Comments :
Title=Ascension
Artist=ShadowStrike
Album=Legends of Human Spirit
Tracknumber=2/10
Year=2019



[ Hidden Text ]

Posted by: AHBAnep Jul 12 2019, 17:50:03

ЦИТАТА
Influences
Aquaria, Dragoforce, Elvenking, MUSE, Dream Theater, Kamelot, ENGAGE!, Power Quest

Posted by: timteam88 Jul 27 2019, 16:26:25

FLAC: https://yadi.sk/d/c2LUhpM3fjmEZA

Posted by: MeatWolf Aug 10 2019, 09:21:08

ЦИТАТА(AHBAnep @ 12th July 2019 - 19:50:03) *
Dragoforce

Им бы, может, и хотелось, но скорее именно Power Quest.

Posted by: Forest Nov 22 2019, 20:53:55

Can I ask for a re-upload? thx

Posted by: satanist666 Nov 23 2019, 12:15:26

Есть на НачнойКвест в 320kbps:
[ Hidden Text ]

Прямая ссылка на Ядиск - 146Mb в 320kbps!!!:
[ Hidden Text ]

Added by: Alatus

metaler.gif

Powered by Invision Power Board
© Invision Power Services