Printable Version of Topic

Click here to view this topic in its original format

Metal Area - Extreme Music Portal _ New Releases _ Aspic - Stars Collide (2019)

Posted by: necroscum Jul 12 2019, 14:13:51

https://metalarea.org/images/audiocovers/2019_Jul/acov_tid324306.jpg

*Artist: Aspic
*Album: Stars Collide
*Year: 2019
*Genre: Progressive Metal
*Country: El Salvador
*Format: mp3@CBR320kbps
*Size: 108MB

Tracklist:
01. Stars Collide 08:40
02. Parallax 04:29
03. The Event Horizon 05:26
04. Under Melting Skies 06:57
05. Mirrors 05:59
06. Introspective 03:39
07. What We Are 07:54
08. Sunrise (feat. Julio Rodas) 02:33
******************************
Total playing time: 45:37

https://www.facebook.com/Aspic.sv
https://aspic.bandcamp.com/album/stars-collide

Technical info

Input File: 02. Parallax.mp3
Channels : 2
Sample Rate : 44100
Precision : 16-bit
Duration : 00:04:29.60 = 11889404 samples = 20220.1 CDDA sectors
File Size : 11.3M
Bit Rate : 335k
Sample Encoding: MPEG audio (layer I, II or III)
Comments :
Title=Parallax
Artist=Aspic
Album=Stars Collide
Tracknumber=2/8
Year=2019



[ Hidden Text ]

Posted by: AHBAnep Jul 12 2019, 17:42:18

Счастливые сальвадорские дети! Аж на душе приятно.
Слушать не надо.

Posted by: Yarri Jul 12 2019, 17:52:01

Мусор, как 95% FF-progressive metal.

Powered by Invision Power Board
© Invision Power Services