Printable Version of Topic

Click here to view this topic in its original format

Metal Area - Extreme Music Portal _ New Releases _ Quantum Solaris - The Power Of Greed [ep] (2019)

Posted by: necroscum Jul 12 2019, 14:30:42

https://metalarea.org/images/audiocovers/2019_Jul/acov_tid324309.jpg

*Artist: Quantum Solaris
*Album: The Power Of Greed [ep]
*Year: 2019
*Genre: Melodic Death Metal
*Country: Denmark
*Format: mp3@CBR320kbps
*Size: 61MB

Tracklist:
01. Amerikarma
02. The Storm
03. Solar Exterminum
04. The Power of Greed
******************************
Total playing time: 26:33

https://www.facebook.com/QuantumSolaris/

Technical info

Input File: 02. The Storm.mp3
Channels : 2
Sample Rate : 44100
Precision : 16-bit
Duration : 00:06:51.61 = 18152045 samples = 30870.8 CDDA sectors
File Size : 17.3M
Bit Rate : 336k
Sample Encoding: MPEG audio (layer I, II or III)
Comments :
Title=The Storm
Artist=Quantum Solaris
Album=The Power of Greed
Tracknumber=2/4
Year=2019



[ Hidden Text ]

Posted by: AHBAnep Jul 12 2019, 17:36:01


не дозрели

Posted by: Andrew Jul 12 2019, 21:33:09

ЦИТАТА(AHBAnep @ Jul 12 2019, 19:36:01) *
не дозрели

Ну...сыграно неплохо, только как для мелодеза - медленновато. Побыстрее, поразнообразнее и было бы все очень даже и неплохо.

Posted by: avather Jul 14 2019, 00:09:45

ЦИТАТА(Andrew @ Jul 13 2019, 00:33:09) *
Ну...сыграно неплохо, только как для мелодеза - медленновато. Побыстрее, поразнообразнее и было бы все очень даже и неплохо.

medlenniy neraznoobrazny death metal

Posted by: timteam88 Jul 27 2019, 15:47:13

FLAC: https://yadi.sk/d/JvSwNdPj8WEEPg

Powered by Invision Power Board
© Invision Power Services