Printable Version of Topic

Click here to view this topic in its original format

Metal Area - Extreme Music Portal _ Archive _ Kairos - Queen Of The Hill (2019)

Posted by: Samaritianin Jul 12 2019, 16:19:46

https://metalarea.org/images/audiocovers/2019_Jul/acov_tid324314.jpg

*Artist: Kairos
*Album: Queen Of The Hill
*Year: 2019
*Genre: Heavy Metal
*Country: Sweden
*Format: mp3@CBR320kbps
*Size: 103MB

Tracklist:
01. Reckless Dedication
02. Strike While the Iron Is Hot
03. Mr. Nocturne
04. Silver Heart
05. Japanese Steel
06. Merciless Domine
07. Enchanted Age
08. Queen of the Hill
******************************
Total playing time: 45:04

https://www.facebook.com/officialkairos/

Extended info
Erik Andersson Drums
Tom Hamström Vocals
Carl Rudhede Guitars (lead) (2012-present)
Viktor Envall Bass (2014-present)
See also: ex-Resurrector
Emil Beaird Guitar (2014-present)



Technical info

Input File: 3 - Mr. Nocturne.mp3
Channels : 2
Sample Rate : 44100
Precision : 16-bit
Duration : 00:05:38.20 = 14914576 samples = 25364.9 CDDA sectors
File Size : 13.6M
Bit Rate : 321k
Sample Encoding: MPEG audio (layer I, II or III)
Comments :
Title=Mr. Nocturne
Artist=Kairos
Album=Queen Of The Hill
Tracknumber=3
Year=2019
Genre=Heavy Metal
Discnumber=1



[ Hidden Text ]

Posted by: Samaritianin Jul 12 2019, 17:13:13

Cloud Mail 320
[ Hidden Text ]

Posted by: Andrew Jul 12 2019, 21:13:53

Ох какой нафффталинище! С первых же аккордов переносишься годков этак на 30 назад. Хороший, приятный ламповый материал. 20.gif

Posted by: LightWizard Jul 13 2019, 19:19:26

Помню,в прошлом году они здорово выступили на разогреве у Удо в Ярославле. Все по старой школе и с душой. 20.gif

Posted by: Витон Jul 13 2019, 20:49:56

Хороший, крепкий альбом в духе 80х, спасибо за релиз!!

Posted by: Yarri Jul 24 2019, 22:32:10

Какой классный альбом! Тот самый случай, когда не поворачивается назвать материал вторичным. Всё в лучших традициях золотого века хэви.

Powered by Invision Power Board
© Invision Power Services