Printable Version of Topic

Click here to view this topic in its original format

Metal Area - Extreme Music Portal _ Archive _ Lamp Of Murmuur - Melancholy Howls In Ceremonial Penitence (2019)

Posted by: Panacea Jul 14 2019, 12:08:50

http://metalarea.org/images/audiocovers/2019_Jul/acov_tid324405.jpg

*Artist: Lamp Of Murmuur
*Album: Melancholy Howls In Ceremonial Penitence
*Year: 2019
*Genre: Raw Black Metal
*Country: United States
*Format: mp3@CBR320kbps
*Size: 68MB

Tracklist:
1. Wail Of The Crescent Moon Light 01:41
2. Chalice Of Oniric Perversions 06:42
3. Vertikal Horrors 06:58
4. Unconceivable Spectral Vision 00:53
5. Harbinger Of Blasphemies To Come 05:14
6. Chalice Of Oniric Torment 05:36
7. Morbid Poetry In The Name Of The Levitating Priestess 02:13
******************************
Total playing time: 29:17

https://deathkvltproductions.bandcamp.com/album/melancholy-howls-in-ceremonial-penitence

Extended info
Limited editions hand-numbered cassettes.
Death Kvlt Productions.


Technical info

Input File: 02 - Chalice Of Oniric Perversions.mp3
Channels : 2
Sample Rate : 44100
Precision : 16-bit
Duration : 00:06:42.29 = 17740769 samples = 30171.4 CDDA sectors
File Size : 16.1M
Bit Rate : 320k
Sample Encoding: MPEG audio (layer I, II or III)
Comments :
Title=Chalice Of Oniric Perversions
Artist=Lamp Of Murmuur
Album=Melancholy Howls In Ceremonial Penitence
Tracknumber=2
Year=2019
Genre=Raw Black Metal



[ Hidden Text ]

Posted by: vosmidesijatye Jul 15 2019, 10:32:38

@320

[ Hidden Text ]

Posted by: vosmidesijatye Jul 15 2019, 13:52:25

ЦИТАТА(Panacea @ Jul 15 2019, 16:48:31) *
Is your link pointing to a wrong file?


Already fixed it, thanx for your attentiveness 9.gif

Posted by: Panacea Jul 15 2019, 13:57:46


Posted by: blackwerwolf Jul 18 2019, 00:28:06

Годная вещь.

Posted by: Wizard_in_Black Jul 22 2019, 09:24:42

Очередная годнота из сонма американских ультра сырых и примитивных проектов издающихся ультра мизерными тиражами на аналоговых носителях

Powered by Invision Power Board
© Invision Power Services