Printable Version of Topic

Click here to view this topic in its original format

Metal Area - Extreme Music Portal _ New Releases _ Hess - Harpokrates (2019)

Posted by: necroscum Jul 23 2019, 13:09:23

http://metalarea.org/images/audiocovers/2019_Jul/acov_tid324814.jpg

*Artist: Hess
*Album: Harpokrates
*Year: 2019
*Genre: Heavy Metal
*Country: Argentina
*Format: mp3@CBR320kbps
*Size: 132MB

Tracklist:
01. King Aiwass 06:17
02. God of Silence 06:59
03. Thoth 07:16
04. The Outsider 07:27
05. Heroes 07:05
06. Battle of Maldon 06:59
07. Chaos at Uruk 04:18
08. Atlantean Dreams 06:36
09. Hagalaz 05:01
******************************
Total playing time: 57:58

https://www.facebook.com/HESSHeavyMetal
https://www.reverbnation.com/melanihesssoprano
https://soundcloud.com/hess-heavymetal
https://www.youtube.com/watch?v=J49TdvoOF6o

Technical info

Input File: 02. God of Silence.mp3
Channels : 2
Sample Rate : 44100
Precision : 16-bit
Duration : 00:06:59.08 = 18481516 samples = 31431.1 CDDA sectors
File Size : 16.8M
Bit Rate : 320k
Sample Encoding: MPEG audio (layer I, II or III)
Comments :
Title=God of Silence
Artist=Hess
Album=Harpokrates
Tracknumber=2/9
Year=2019



[ Hidden Text ]
[ Hidden Text ]

Posted by: isvili Jul 24 2019, 09:38:52

Вумен голосит.

Posted by: AHBAnep Jul 24 2019, 09:41:39


Вумен стала голосить приятнее уху, как мне показалось..

Posted by: avkruchinin Jul 25 2019, 01:47:56

Да, с вокалом стало заметно лучше, однако "красивости" тембра ну совсем нема.

Powered by Invision Power Board
© Invision Power Services