Printable Version of Topic

Click here to view this topic in its original format

Metal Area - Extreme Music Portal _ New Releases _ Monolith - Fight/Flight [ep] (2019)

Posted by: necroscum Aug 13 2019, 14:14:39

https://metalarea.org/images/audiocovers/2019_Aug/acov_tid325653.png

*Artist: https://metalarea.org/forum/index.php?showtopic=166874
*Album: Fight/Flight [ep]
*Year: 2019
*Genre: Instrumental/Progressive Metal
*Country: United Kingdom
*Format: mp3@CBR320kbps
*Size: 54MB

Tracklist:
01. In Fields of Grayscale 03:30
02. Astral Odyssey 03:54
03. First Blood 04:04
04. Return to the Fold 04:04
05. Fracture 03:51
06. Delirium 04:12
******************************
Total playing time: 23:35

https://www.facebook.com/monolithbanduk
https://www.youtube.com/watch?v=QNM_VH4zMDM

Technical info

Input File: 02. Astral Odyssey.mp3
Channels : 2
Sample Rate : 44100
Precision : 16-bit
Duration : 00:03:54.07 = 10322619 samples = 17555.5 CDDA sectors
File Size : 9.40M
Bit Rate : 321k
Sample Encoding: MPEG audio (layer I, II or III)
Comments :
Title=Astral Odyssey
Artist=Monolith
Album=Fight/Flight
Tracknumber=2/6
Year=2019
Genre=9
Discnumber=1/1



[ Hidden Text ]

Powered by Invision Power Board
© Invision Power Services