Printable Version of Topic

Click here to view this topic in its original format

Metal Area - Extreme Music Portal _ New Releases _ Subjugator - Live [live] (1994)

Posted by: Proteus_666 Jan 16 2020, 11:41:49

http://metalarea.org/images/audiocovers/2020_Jan/acov_tid332691.jpg

*Artist: Subjugator
*Album: Live [live]
*Year: 1994
*Genre: Thrash Metal
*Country: United States
*Format: mp3@CBR320kbps
*Size: 29MB

Tracklist:
1. Leaders Of The Sheep 02:12
2. I Don't Need Society (D.R.I. cover) 01:42
3. Mortal Progression 02:39
4. Grocery Store Customer 02:57
5. United Forces (S.O.D. cover) 01:31
6. Political Disgust (bonus studio track) 01:28
******************************
Total playing time: 12:29

https://www.youtube.com/watch?v=V_Ok84rGf8U

Extended info
Band from Huntington Beach, California.
Tracks 1-5 recorded live on 9/18/93 in Anaheim, California.
Track 6 recorded 12/11/93 at Selah Recording Studio, Westminster, California.


Technical info

Input File: 02-I Don't Need Society.mp3
Channels : 2
Sample Rate : 44100
Precision : 16-bit
Duration : 00:01:42.25 = 4509313 samples = 7668.9 CDDA sectors
File Size : 4.09M
Bit Rate : 320k
Sample Encoding: MPEG audio (layer I, II or III)
Comments :
Title=I Don't Need Society
Artist=Subjugator
Album=Live
Tracknumber=02
Year=1994
Genre=Thrash Metal



[ Hidden Text ]

Powered by Invision Power Board
© Invision Power Services