Printable Version of Topic

Click here to view this topic in its original format

Metal Area - Extreme Music Portal _ New Releases _ Bonded - Rest In Violence (2020)

Posted by: Samaritianin Jan 16 2020, 12:14:44

http://metalarea.org/images/audiocovers/2020_Jan/acov_tid332696.jpg

*Artist: Bonded
*Album: Rest In Violence
*Year: 2020
*Genre: Old School Thrash Metal
*Country: Germany
*Format: mp3@CBR320kbps
*Size: 120MB

Tracklist:
1. Godgiven
2. Suit Murderer
3. Rest In Violence
4. Je Suis Charlie
5. The Rattle & The Snake
6. No Cure For Life
7. Where Silence Reverberates
8. Galaxy M7
9. Arrival
10. The Beginning Of The End
11. To Each His Own
12. The Outer Rim
******************************
Total playing time: 52:10

https://www.facebook.com/bondedofficial/

Extended info
Bernemann Kost - Guitars
Markus (Makka) Freiwald - Drums
Ingo Bajonczak -Vocals
Marc Hauschild - Bass
Chris Tsitsis - Guitars


Technical info

Input File: 06 - No Cure For Life.mp3
Channels : 2
Sample Rate : 44100
Precision : 16-bit
Duration : 00:04:40.78 = 12382354 samples = 21058.4 CDDA sectors
File Size : 11.3M
Bit Rate : 321k
Sample Encoding: MPEG audio (layer I, II or III)
Comments :
Title=No Cure For Life
Artist=Bonded
Album=Rest In Violence
Tracknumber=6
Year=2020
Genre=Rock/Hard Rock/Metal
Discnumber=1



[ Hidden Text ]

Posted by: Andrew Jan 16 2020, 17:18:19

Просмотрев видео, решил, что на старости лет Энтони Хопкинс решил в треш погрузиться с головою...
А альбом очень добротный и четкий! metaler.gif

Новая группа BONDED, которую основали экс-участники SODOM Бернд “Бернеманн” Кост (Bernd “Bernemann” Kost, гитара) и Маркус “Макка” Фрайвальд (Markus “Makka” Freiwald, барабаны). Выпустит дебютный альбом “Rest In Violence” 17 января 2020 года на лейбле Century Media.
BONDED, в состав которых также входят второй гитарист Крис Цицис (Chris Tsitsis, ex-SUICIDAL ANGELS), басист Марк Хаушилд (Marc Hauschild) и вокалист Инго Байончак (Ingo Bajonczak, ASSASSIN), создали разноплановый и забойный трэшевый релиз, а помогал им в этом продюсер Корнелиус Рамбо (Cornelius Rambadt), ранее работавший с SODOM, DISBELIEF и ONKEL TOM).

https://www.youtube.com/watch?time_continue=54&v=BkH7ziGNtM4&feature=emb_logo

Posted by: asog Jan 16 2020, 19:58:44

Уволенные содомиты (содомщики?) сварганили свой ансамбель.
Нуда, неплохонеплохо, хотя затянуто немного, пару песен мона и выкинуть.

Posted by: Cronopio Jan 16 2020, 20:42:33

Thank you.

Posted by: sadmannn Jan 17 2020, 09:56:16

А альбом хорош...покруче тех же Sodom вдвое, как минимум

Posted by: asog Jan 17 2020, 10:45:49

ЦИТАТА(sadmannn @ Jan 17 2020, 11:56:16) *
А альбом хорош...покруче тех же Sodom вдвое, как минимум

Гыгык, я конечно люто извиняюсь, но как можно мерить крутость музыки математически. Вот что круче и во сколько - MODERN TALKING и NAPALM DEATH.

Ладно, можно не отвечать, так, брюзжу.

Posted by: smes Jan 17 2020, 14:20:16

ЦИТАТА(asog @ Jan 17 2020, 14:45:49) *
Гыгык, я конечно люто извиняюсь, но как можно мерить крутость музыки математически. Вот что круче и во сколько - MODERN TALKING и NAPALM DEATH.

Ладно, можно не отвечать, так, брюзжу.

MODERN TALKING

не знал, что тут Sodom, но по клипу сразу понравилась песня, а по синглу очень похоже на Overkill, что есть круто

Posted by: Aectan Jan 17 2020, 20:57:05

Крепкий трэшак от бывших участников Sodom, местами отдаёт Overkill, да. Правда, сам Содом мне нравится всё же больше.

Posted by: babanguida Jan 17 2020, 21:37:35

Nothing special here with this modern sounding release.

Such ridiculous song titles and stupid lyrics should not be allowed... (Je Suis Charlie: facepalm)


Posted by: Diflock Jan 18 2020, 00:11:36

Great Riffs! Buy the record to support Bernemann and Makka!

Posted by: denver Jan 18 2020, 02:06:03

ЦИТАТА(babanguida @ Jan 17 2020, 23:37:35) *
Nothing special here with this modern sounding release.

Such ridiculous song titles and stupid lyrics should not be allowed... (Je Suis Charlie: facepalm)


полностью согласен.фуитэ какое то.

Posted by: DarkHorde Jan 20 2020, 00:21:54

ЦИТАТА(Aectan @ 18th January 2020 - 07:57:05) *
местами отдаёт Overkill

Grin Inc. тоже отдаёт.
Есть забойные моменты, но в целом скучно. Пару раз прослушать и забыть.

Powered by Invision Power Board
© Invision Power Services