Printable Version of Topic

Click here to view this topic in its original format

Metal Area - Extreme Music Portal _ New Releases _ Victorius - Space Ninjas From Hell (2020)

Posted by: necroscum Jan 16 2020, 12:26:05

http://metalarea.org/images/audiocovers/2020_Jan/acov_tid332698.jpg

*Artist: Victorius
*Album: Space Ninjas From Hell
*Year: 2020
*Genre: Power Metal
*Country: Germany
*Format: mp3@CBR320kbps
*Size: 105MB

Tracklist:
01. Tale of the Sunbladers 04:18
02. Ninjas Unite 04:35
03. Super Sonic Samurai 04:02
04. Evil Wizard WuShu Master 03:51
05. Nippon Knights 03:28
06. Shuriken Showdown 03:34
07. Wasabi Warmachine 04:34
08. Wrath of the Dragongod 03:32
09. Astral Assassin Shark Attack 03:46
10. Space Ninjas from Hell 03:15
11. Cosmic Space Commando Base 04:19
12. Shinobi Strike 3000 02:23
******************************
Total playing time: 45:37

https://myspace.com/victoriusone
https://www.facebook.com/victoriusmetal
https://www.youtube.com/watch?v=B2uAGRHJvHY&feature=emb_title

Technical info

Input File: 2 - Ninjas Unite.mp3
Channels : 2
Sample Rate : 44100
Precision : 16-bit
Duration : 00:04:34.90 = 12123134 samples = 20617.6 CDDA sectors
File Size : 11.1M
Bit Rate : 323k
Sample Encoding: MPEG audio (layer I, II or III)
Comments :
Title=Ninjas Unite
Artist=Victorius
Album=Space Ninjas From Hell
Tracknumber=2
Year=2020
Genre=Rock/Hard Rock/Metal
Discnumber=1



[ Hidden Text ]

Posted by: Cronopio Jan 16 2020, 18:03:10

Thanks.

Posted by: Andrew Jan 16 2020, 18:15:55

https://victoriusgermany.bandcamp.com/

Cloud Mail 320:
[ Hidden Text ]

Posted by: wn129aa Jan 25 2020, 06:52:13

Наконец сделали альбом маяк для японцев (если сами не могут) metaler.gif banana.gif

Posted by: zauber1 Feb 2 2020, 15:26:59

Какие-то конкуренты Dragonforce.

Posted by: MeatWolf Feb 2 2020, 16:01:23

Пародия на пародию на пародию? 1488.gif

Powered by Invision Power Board
© Invision Power Services