Printable Version of Topic

Click here to view this topic in its original format

Metal Area - Extreme Music Portal _ New Releases _ Darktribe - Voici L'homme (2020)

Posted by: necroscum Jan 16 2020, 12:34:04

http://metalarea.org/images/audiocovers/2020_Jan/acov_tid332699.jpg

*Artist: Darktribe
*Album: Voici L'homme
*Year: 2020
*Genre: Heavy/Power Metal
*Country: France
*Format: mp3@CBR320kbps
*Size: 116MB

Tracklist:
01. March for a Prophecy 01:15
02. Prism of Memory 05:09
03. Voici l'homme 06:05
04. A Silent Curse 04:31
05. Faith and Vision 05:14
06. Back in Light 04:03
07. Under the Tree of Life 05:17
08. According to Darkness 05:44
09. The Hunger Theory 07:26
10. Symbolic Story 05:41
******************************
Total playing time: 50:25

https://myspace.com/darktribemetal
https://www.facebook.com/DarktribeOfficial
https://www.youtube.com/watch?v=UAGtrM13460&feature=emb_title

Technical info

Input File: 2 - Prism of Memory.mp3
Channels : 2
Sample Rate : 44100
Precision : 16-bit
Duration : 00:05:09.41 = 13645025 samples = 23205.8 CDDA sectors
File Size : 12.4M
Bit Rate : 322k
Sample Encoding: MPEG audio (layer I, II or III)
Comments :
Title=Prism of Memory
Artist=Darktribe
Album=Voici l'homme
Tracknumber=2
Year=2020
Genre=Metal
Discnumber=1



[ Hidden Text ]

Posted by: Cronopio Jan 16 2020, 17:58:42

Thank you.

Posted by: Andrew Jan 16 2020, 18:13:21

https://scarletrecords.bandcamp.com/album/voici-lhomme

Cloud Mail 320:

[ Hidden Text ]

Posted by: sadmannn Jan 16 2020, 19:44:17

Альбом 15-го года был хорош, и мелодиями и вокалом...Здесь же вокалюга и петь разучился и годных мелодий не привозили

Posted by: zauber1 Feb 2 2020, 15:24:54

ЦИТАТА(sadmannn @ Jan 16 2020, 21:44:17) *
Альбом 15-го года был хорош, и мелодиями и вокалом...Здесь же вокалюга и петь разучился и годных мелодий не привозили


https://scarletrecords.bandcamp.com/album/the-modern-age

Powered by Invision Power Board
© Invision Power Services