Printable Version of Topic

Click here to view this topic in its original format

Metal Area - Extreme Music Portal _ New Releases _ Veritates - Killing Time (2020)

Posted by: necroscum Jan 16 2020, 12:42:00

http://metalarea.org/images/audiocovers/2020_Jan/acov_tid332700.jpg

*Artist: Veritates
*Album: Killing Time
*Year: 2020
*Genre: Heavy/Power Metal
*Country: Germany
*Format: mp3@CBR320kbps
*Size: 103MB

Tracklist:
01. The Past is Dead 05:44
02. Killing Time 05:16
03. Jerusalem Syndrome 07:03
04. Awakening 05:59
05. Hangmen Also Die 11:23
06. The Wild Hunt 04:42
07. Hasta La Muerte 03:30
******************************
Total playing time: 43:37

https://www.facebook.com/Veritates-376780209623287/
https://soundcloud.com/veritates
https://veritates.bandcamp.com/album/killing-time
https://www.youtube.com/watch?v=iYB5bM8F2eg

Technical info

Input File: 2 - Killing Time.mp3
Channels : 2
Sample Rate : 44100
Precision : 16-bit
Duration : 00:05:16.78 = 13969910 samples = 23758.4 CDDA sectors
File Size : 12.8M
Bit Rate : 322k
Sample Encoding: MPEG audio (layer I, II or III)
Comments :
Title=Killing Time
Artist=Veritates
Album=Killing Time
Tracknumber=2
Year=2020
Genre=Rock/Hard Rock/Metal
Discnumber=1



[ Hidden Text ]

Posted by: Andrew Jan 16 2020, 21:05:38

Cloud Mail 320:

[ Hidden Text ]

Powered by Invision Power Board
© Invision Power Services