Printable Version of Topic

Click here to view this topic in its original format

Metal Area - Extreme Music Portal _ New Releases _ Level H - Conquer [ep] (2020)

Posted by: necroscum Jan 16 2020, 13:14:57

http://metalarea.org/images/audiocovers/2020_Jan/acov_tid332703.jpg

*Artist: Level H
*Album: Conquer [ep]
*Year: 2020
*Genre: Melodic Death Metal
*Country: Australia
*Format: mp3@CBR320kbps
*Size: 46MB

Tracklist:
01. Conquer
02. The Sundew Trial
03. Vigorous
04. Aurora
05. Sons of Odin
******************************
Total playing time: 19:58

https://www.facebook.com/LevelHband

Technical info

Input File: 02. The Sundew Trial.mp3
Channels : 2
Sample Rate : 44100
Precision : 16-bit
Duration : 00:05:18.09 = 14027637 samples = 23856.5 CDDA sectors
File Size : 12.9M
Bit Rate : 324k
Sample Encoding: MPEG audio (layer I, II or III)
Comments :
Title=The Sundew Trial
Artist=Level H
Album=Conquer
Tracknumber=2/5
Year=2020
Genre=9
Discnumber=1/1



[ Hidden Text ]

Posted by: Ostinato Jan 16 2020, 14:43:48


Powered by Invision Power Board
© Invision Power Services