Printable Version of Topic

Click here to view this topic in its original format

Metal Area - Extreme Music Portal _ New Releases _ Crow Hunter - Somd (2020)

Posted by: necroscum Jan 16 2020, 14:31:30

http://metalarea.org/images/audiocovers/2020_Jan/acov_tid332710.jpg

*Artist: Crow Hunter
*Album: Somd
*Year: 2020
*Genre: Groove/Southern/Stoner Metal
*Country: United States
*Format: mp3@CBR320kbps
*Size: 118MB

Tracklist:
01. Chop 'n' Drop
02. Sound Off
03. Crow Hunter (Self-Titled)
04. Mariner (Of the High Seas)
05. Protect the King
06. Loch Ness
07. Shoot the Gap
08. American Pressure
09. Steel Your Mind
10. Kilimanjaro
11. Bandit
12. Sludge Hammer
******************************
Total playing time: 51:24

https://www.facebook.com/CrowHunterBandSOMD/
https://www.youtube.com/watch?v=SVfOvAbj9tU&feature=emb_title

Technical info

Input File: 2 - Sound Off.mp3
Channels : 2
Sample Rate : 44100
Precision : 16-bit
Duration : 00:04:30.20 = 11915776 samples = 20264.9 CDDA sectors
File Size : 10.9M
Bit Rate : 323k
Sample Encoding: MPEG audio (layer I, II or III)
Comments :
Title=Sound Off
Artist=Crow Hunter
Album=Somd
Tracknumber=2
Year=2020
Genre=Rock/Metal
Discnumber=1



[ Hidden Text ]

Posted by: nomadgg1 Jan 16 2020, 17:43:17


Powered by Invision Power Board
© Invision Power Services