Printable Version of Topic

Click here to view this topic in its original format

Metal Area - Extreme Music Portal _ New Releases _ Exa - Cut The Past (2020)

Posted by: Samaritianin Jan 16 2020, 14:33:17

http://metalarea.org/images/audiocovers/2020_Jan/acov_tid332711.jpg

*Artist: Exa
*Album: Cut The Past
*Year: 2020
*Genre: Thrash Metal
*Country: Germany
*Format: mp3@CBR320kbps
*Size: 86MB

Tracklist:
01. Fuel for Fire
02. Loss of Humanity
03. Welcome to the Pit
04. Unbroken
05. The Summoner
06. Narcotic Wheel
07. Dicktators
08. Face the Other Side
09. Lesson in Arrogance
10. When Flesh Tears Up
******************************
Total playing time: 37:15

https://examusic.bandcamp.com/album/cut-the-past
https://www.facebook.com/EXABandpage/

Extended info
Tamino Bosse Bass
Leon Pester Drums
Tom Exa Guitars (lead), Vocals
Johannes Lortz Guitars (rhythm)



Technical info

Input File: 04 - Unbroken.mp3
Channels : 2
Sample Rate : 44100
Precision : 16-bit
Duration : 00:03:51.43 = 10206107 samples = 17357.3 CDDA sectors
File Size : 9.34M
Bit Rate : 323k
Sample Encoding: MPEG audio (layer I, II or III)
Comments :
Title=Unbroken
Artist=Exa
Album=Cut the Past
Tracknumber=4
Year=2020
Genre=Metal
Discnumber=1



[ Hidden Text ]

Powered by Invision Power Board
© Invision Power Services