Printable Version of Topic

Click here to view this topic in its original format

Metal Area - Extreme Music Portal _ New Releases _ Analgesia - Saint Dreamers (2013)

Posted by: Gelukas Jan 16 2020, 15:58:23

https://metalarea.org/images/audiocovers/2020_Jan/acov_tid332719.jpg

*Artist: Analgesia
*Album: Saint Dreamers
*Year: 2013
*Genre: Symphonic Gothic Metal
*Country: Morocco
*Format: mp3@CBR320kbps
*Size: 217MB

Tracklist:
CD1:
1. Wellhorld 05:15
2. Story End 04:24
3. Deliver Me 04:37
4. Fallen Beuty 05:14
5. Still in My Mind 03:33
6. Men on the Earth 02:04 (Remake)
7. Tell Me 04:53
8. Motherland 01:42
9. Tonight 02:52
10. One (Metallica cover) 06:54
11. Heroes and Poets 04:56

CD2 (Instrumental):
1. Wellhorld 05:15
2. Story End 04:24
3. Deliver Me 04:37
4. Fallen Beuty 05:14
5. Still in My Mind 03:33
6. Men on the Earth 02:04
7. Tell Me 04:53
8. Motherland 01:42
9. Tonight 02:52
10. One (Metallica cover) 06:54
11. Heroes and Poets 04:56
******************************
Total playing time: 1:32:48

https://www.youtube.com/user/hoo45
https://www.facebook.com/pages/Analgesia/128042967822

Technical info

Input File: 10 - One (Cover).mp3
Channels : 2
Sample Rate : 44100
Precision : 16-bit
Duration : 00:06:53.60 = 18239584 samples = 31019.7 CDDA sectors
File Size : 16.8M
Bit Rate : 324k
Sample Encoding: MPEG audio (layer I, II or III)
Comments :
Title=One (Cover)
Artist=Analgesia
Album=Saint Dreamers
Tracknumber=10
Year=2013
Genre=Symphonic Gothic Metal/Rock



[ Hidden Text ]

Powered by Invision Power Board
© Invision Power Services