Printable Version of Topic

Click here to view this topic in its original format

Metal Area - Extreme Music Portal _ New Releases _ The Dead Sea - The Ceremony Of Marrying A Mummy (2020)

Posted by: Samaritianin Jul 30 2020, 23:36:22

https://metalarea.org/images/audiocovers/2020_Jul/acov_tid340268.jpg

*Artist: The Dead Sea
*Album: The Ceremony Of Marrying A Mummy
*Year: 2020
*Genre: Melodic Doom/Death Metal
*Country: Jordan
*Format: mp3@CBR320kbps
*Size: 121MB

Tracklist:
1. Dancing With Armless Carcass 07:28
2. A Ring For Decomposed Finger 05:25
3. Kissing The Lipless Head 05:17
4. Bridal Dress For A Corpse 06:19
5. The Ceremony Of Marrying A Mummy 05:12
6. Orchestral Burial 05:03
7. The Scent Of Decayed Face 03:54
8. My Withered Admirer 04:40
9. Saline Whispers 05:11
10. The Dance Is Over (Outro) 02:18
******************************
Total playing time: 50:47

https://thedeadsea-doom.bandcamp.com/album/the-ceremony-of-marrying-a-mummy
https://www.facebook.com/Thedeadseadoom/

Extended info
Azmo Lozmodial All instruments, Vocals (2019-present)
See also: Now Everything Fades, Tholomat, Xathrites, ex-Al Lat, ex-DeathDiaries, ex-Forgive Me, ex-Lord Azmo, Cyclothymia, ex-Chalice of Doom


Technical info

Input File: 04 Bridal Dress for a Corpse.mp3
Channels : 2
Sample Rate : 44100
Precision : 16-bit
Duration : 00:06:19.35 = 16729115 samples = 28450.9 CDDA sectors
File Size : 15.7M
Bit Rate : 331k
Sample Encoding: MPEG audio (layer I, II or III)
Comments :
Title=Bridal Dress for a Corpse
Artist=The Dead Sea
Album=The Ceremony of Marrying a Mummy
Tracknumber=4/10
Year=2020-20-20
Genre=Alternative
Discnumber=1/1



[ Hidden Text ]

Posted by: vosmidesijatye Jul 31 2020, 11:59:12

This romantic track titles 15.gif

Posted by: GRAF Jul 31 2020, 14:31:59

Идея хороша, но исполнение отвратительное.

Posted by: skidnik Jul 31 2020, 16:25:56

QUOTE(GRAF @ 31st July 2020 - 16:31:59) *
Идея хороша,

Альбом же, очевидно из названий, воспевает некрофилию. Вот это признание.

Posted by: serjred Jul 31 2020, 18:51:34

Очень даже неплохо

Posted by: vikt11 Jul 31 2020, 20:37:00

50на50....

Posted by: 6666666 Jul 31 2020, 21:29:05

ЦИТАТА(GRAF @ 31st July 2020 - 16:31:59) *
но исполнение отвратительное

На страну посмотри и не делай идиотских утверждений.

Posted by: dm666 Aug 1 2020, 11:07:08





Lossless: FLAC (tracks)
[ Hidden Text ]

Posted by: vikt11 Aug 3 2020, 12:43:10

Давно в думе так нечего не цепляло.. Композиция A Ring For Decomposed Finger три дня на репите...Вникать в суть текста не стоит - чистая ниекрофилия ... Да по хрен на текст, главное атмосферность, а она здесь просто зашкаливает!!!

Posted by: Bloodn Lord Aug 3 2020, 15:00:25

Материал и взаправду очень красивый. Музыкальная составляющая высшего разряда. Особенно, учитывая то, что музыканты из Иордании.
Подкачал, конечно, вокал, как недогроул, так и чистый, смахивающий больше на готик-рок smile2.gif Ну да ладно, ребята на правильном пути.

Posted by: Stepan Aug 17 2020, 00:30:38

Вася, дорогой, а что не так с Иорданией? Там что, люди не такие талантливые или второго сорта? Что за дискриминация?

Posted by: SatanicPanzer Aug 17 2020, 19:22:08

1488.gif

Powered by Invision Power Board
© Invision Power Services