Printable Version of Topic

Click here to view this topic in its original format

Metal Area - Extreme Music Portal _ New Releases _ Wicked Step - The Harder The Better 1976-1979 (2014)

Posted by: canadaspaceman Jul 31 2020, 02:51:03

https://metalarea.org/images/audiocovers/2020_Jul/acov_tid340271.jpg

*Artist: Wicked Step
*Album: The Harder The Better 1976-1979
*Year: 2014
*Genre: Hard Rock/Heavy Metal
*Country: United States
*Format: mp3@CBR224kbps
*Size: 55MB

Tracklist:
1. The Harder The Better 04:16
2. Leather Babies 04:26
3. Lady On The Hill 04:24
4. On The Road 03:33
5. Master Of The Darkness 04:48
6. Rock N' Roller Masses 03:02
7. She's A Rocker 04:13
8. Shadows Of My Sounds 04:35
******************************
Total playing time: 33:17

Extended info
vinyl rip for metalarea.org

https://www.discogs.com/Wicked-Step-The-Harder-The-Better-1976-1979-/master/797391

WICKED STEP (Texas) Texas metal Underground vinyl

Label: TMU Records ‎– TMU 1006
Format : Vinyl, LP, Compilation, Limited Edition


Technical info

Input File: 1. The Harder The Better.mp3
Channels : 2
Sample Rate : 44100
Precision : 16-bit
Duration : 00:04:16.09 = 11293481 samples = 19206.6 CDDA sectors
File Size : 7.34M
Bit Rate : 229k
Sample Encoding: MPEG audio (layer I, II or III)
Comments :
Artist=Wicked Step (Texas)
Album=The Harder The Better 1976-1979
Year=2014
Genre=Hard Rock/Heavy Metal



[ Hidden Text ]

Powered by Invision Power Board
© Invision Power Services