Printable Version of Topic

Click here to view this topic in its original format

Metal Area - Extreme Music Portal _ New Releases _ Skrawl - Brother Butchers Brother [demo] (2018)

Posted by: lestllk Jul 31 2020, 05:14:59

http://metalarea.org/images/audiocovers/2020_Jul/acov_tid340274.jpg

*Artist: Skrawl
*Album: Brother Butchers Brother [demo]
*Year: 2018
*Genre: Black Metal/Punk
*Country: United States
*Format: mp3@VBR260kbps
*Size: 17MB

Tracklist:
1. That Which Kills 03:09
2. North / Black Sun Bloody Moon (Current 93 Cover) 01:38
3. Blind In Both Eyes 02:40
4. Invocation of the Killing Frost 01:32
******************************
Total playing time: 8:59

Extended info
Primitive Propaganda

Tape-rip by Zero


Technical info

Input File: 04 Invocation of the Killing Frost.mp3
Channels : 2
Sample Rate : 44100
Precision : 16-bit
Duration : 00:01:26.49 = 3814253 samples = 6486.82 CDDA sectors
File Size : 3.07M
Bit Rate : 284k
Sample Encoding: MPEG audio (layer I, II or III)
Comments :
Title=Invocation of the Killing Frost
Artist=Skrawl
Album=Brother Butchers Brother
Tracknumber=04/4
Year=2018
Genre=Black/Punk
Discnumber=1/1



[ Hidden Text ]

Powered by Invision Power Board
© Invision Power Services