Printable Version of Topic

Click here to view this topic in its original format

Metal Area - Extreme Music Portal _ New Releases _ Underkript - Parables (2020)

Posted by: Samaritianin Jul 31 2020, 07:20:29

https://metalarea.org/images/audiocovers/2020_Jul/acov_tid340281.jpg

*Artist: Underkript
*Album: Parables
*Year: 2020
*Genre: Progressive Thrash/Groove Metal
*Country: United Kingdom
*Format: mp3@CBR320kbps
*Size: 109MB

Tracklist:
1. Born Benign to This World 08:40
2. Void of Light 05:06
3. Seasons Change 07:21
4. Transcendence 09:33
5. Dysphoria (feat. Niko Tsonev)Niko Tsonev 06:29
6. Ascension 08:27
******************************
Total playing time: 45:36

https://underkript.bandcamp.com/album/parables
https://www.facebook.com/Underkript/

Extended info
Josh Wilkinson Bass, Vocals (backing) (2014-present)
MJ Anderson Vocals (lead), Guitars (2014-present)
See also: Seracrusis, ex-Saigon
Ruari Ferguson Drums (2018-present)


Technical info

Input File: 03 Seasons Change.mp3
Channels : 2
Sample Rate : 44100
Precision : 16-bit
Duration : 00:07:21.13 = 19453745 samples = 33084.6 CDDA sectors
File Size : 18.3M
Bit Rate : 332k
Sample Encoding: MPEG audio (layer I, II or III)
Comments :
Title=Seasons Change
Artist=Underkript
Album=Parables
Tracknumber=3/6
Year=2020-20-20
Genre=Metal
Discnumber=1/1



[ Hidden Text ]

Powered by Invision Power Board
© Invision Power Services