Printable Version of Topic

Click here to view this topic in its original format

Metal Area - Extreme Music Portal _ New Releases _ Mors Principium Est - A Day For Redemption [single] (2020)

Posted by: vosmidesijatye Sep 13 2020, 22:15:16

http://metalarea.org/images/audiocovers/2020_Sep/acov_tid341593.jpg

*Artist: Mors Principium Est
*Album: A Day For Redemption [single]
*Year: 2020
*Genre: Melodic Death Metal
*Country: Finland
*Format: mp3@CBR320kbps
*Size: 11MB

Tracklist:
1. A Day For Redemption 05:03
******************************
Total playing time: 5:03

https://www.youtube.com/watch?v=SmsdPNGSQgg

Technical info

Input File: 01 A Day for Redemption.mp3
Channels : 2
Sample Rate : 44100
Precision : 16-bit
Duration : 00:05:03.53 = 13385805 samples = 22765 CDDA sectors
File Size : 12.1M
Bit Rate : 320k
Sample Encoding: MPEG audio (layer I, II or III)
Comments :
Title=A Day for Redemption
Artist=Mors Principium Est
Album=A Day for Redemption
Tracknumber=01/01
Year=2020
Discnumber=1/1



[ Hidden Text ]

Posted by: Vovannn Sep 21 2020, 09:26:25

Добротная весчь,жду альбом с нетерпением! 5.gif

Powered by Invision Power Board
© Invision Power Services