Printable Version of Topic

Click here to view this topic in its original format

Metal Area - Extreme Music Portal _ New Releases _ Hilotz - Giza Ankerkeria (2016)

Posted by: Samaritianin Sep 14 2020, 06:49:40

http://metalarea.org/images/audiocovers/2020_Sep/acov_tid341600.jpg

*Artist: Hilotz
*Album: Giza Ankerkeria
*Year: 2016
*Genre: Thrash Metal
*Country: Spain
*Format: mp3@CBR320kbps
*Size: 94MB

Tracklist:
1. Barne eromena 05:47
2. Minak barnean dirau 04:43
3. Hilketa 03:51
4. Iluntasunaren esklabu 03:54
5. Ankerkeria I - Izakia 04:10
6. Ankerkeria II - Eraldaketa 05:32
7. Ankerkeria III - Arbasoak 06:54
8. Amildegian 05:55
******************************
Total playing time: 40:46

https://hilotz.bandcamp.com/album/giza-ankerkeria-2016
https://www.facebook.com/hilotzofficial

Extended info
Etxahun Urkizu Drums
Mikel Yarza Vocals, Bass
Paulo Eizmendi Guitars


Technical info

Input File: 06 - Ankerkeria II - Eraldaketa.mp3
Channels : 2
Sample Rate : 44100
Precision : 16-bit
Duration : 00:05:32.30 = 14654386 samples = 24922.4 CDDA sectors
File Size : 13.3M
Bit Rate : 321k
Sample Encoding: MPEG audio (layer I, II or III)
Comments :
Title=Ankerkeria II - Eraldaketa
Artist=Hilotz
Album=Giza Ankerkeria
Tracknumber=6
Year=2016-02-17
Genre=Metal
Discnumber=1



[ Hidden Text ]

Powered by Invision Power Board
© Invision Power Services