Printable Version of Topic

Click here to view this topic in its original format

Metal Area - Extreme Music Portal _ New Releases _ Ensepulchre - Desolation (2020)

Posted by: Samaritianin Sep 14 2020, 13:18:35

http://metalarea.org/images/audiocovers/2020_Sep/acov_tid341608.jpg

*Artist: Ensepulchre
*Album: Desolation
*Year: 2020
*Genre: Black/Death Metal
*Country: United States
*Format: mp3@CBR320kbps
*Size: 99MB

Tracklist:
1. Prolegomenon 00:50
2. The Mountain 04:37
3. Anthropogenesis 05:03
4. Transcend 05:16
5. Thy Shepherd 03:45
6. The Shape of Fear 05:32
7. Quietus 00:32
8. Anthropophagy 05:13
9. Desolation Pt I: O Son of Man 06:32
10. Desolation Pt II: From the Midst of the Stones of Fire 05:00
******************************
Total playing time: 42:20

https://ensepulchre.bandcamp.com/album/desolation-2
https://www.facebook.com/ensepulchre

Extended info
Phil Wood Everything
See also: Charnal, Tel Anorath


Technical info

Input File: 04 - Transcend.mp3
Channels : 2
Sample Rate : 44100
Precision : 16-bit
Duration : 00:05:16.44 = 13954916 samples = 23732.9 CDDA sectors
File Size : 12.9M
Bit Rate : 327k
Sample Encoding: MPEG audio (layer I, II or III)
Comments :
Title=Transcend
Artist=Ensepulchre
Album=Desolation
Tracknumber=4
Year=2020



[ Hidden Text ]

Powered by Invision Power Board
© Invision Power Services