Printable Version of Topic

Click here to view this topic in its original format

Metal Area - Extreme Music Portal _ New Releases _ Thoracotomy - Unimaginable Suffering [ep] (2020)

Posted by: Andrew Sep 14 2020, 14:49:49

http://metalarea.org/images/audiocovers/2020_Sep/acov_tid341616.jpg

*Artist: Thoracotomy
*Album: Unimaginable Suffering [ep]
*Year: 2020
*Genre: Death Metal
*Country: United States
*Format: mp3@CBR320kbps
*Size: 23MB

Tracklist:
1. Primitive Rot
2. Primordial Cautery
3. Interlude
4. Mortuary Wax
******************************
Total playing time: 8:44

https://charcuteriegoregrind.bandcamp.com/album/unimaginable-suffering
https://www.youtube.com/watch?v=RiywA6M-sxU

Technical info

Input File: Thoracotomy - Unimaginable Suffering - 02 Primordial Cautery.mp3
Channels : 2
Sample Rate : 44100
Precision : 16-bit
Duration : 00:02:11.25 = 5787949 samples = 9843.45 CDDA sectors
File Size : 5.44M
Bit Rate : 332k
Sample Encoding: MPEG audio (layer I, II or III)
Comments :
Title=Primordial Cautery
Artist=Thoracotomy
Album=Unimaginable Suffering
Tracknumber=2
Year=2020



[ Hidden Text ]

Powered by Invision Power Board
© Invision Power Services