Printable Version of Topic

Click here to view this topic in its original format

Metal Area - Extreme Music Portal _ New Releases _ Destrowar - Angelcunt Destruction [demo] (2020)

Posted by: Andrew Sep 14 2020, 14:59:07

http://metalarea.org/images/audiocovers/2020_Sep/acov_tid341617.jpg

*Artist: Destrowar
*Album: Angelcunt Destruction [demo]
*Year: 2020
*Genre: Black/Death Metal
*Country: Turkey
*Format: mp3@CBR320kbps
*Size: 27MB

Tracklist:
1. Satanic War Breath 00:35
2. Burn the Holy Lies 02:15
3. Nunslaying Nuclear Explosion 03:28
4. Angelcunt Destruction 02:29
5. Bestial Damnation 03:05
******************************
Total playing time: 11:52

https://destrowar.bandcamp.com/releases
https://www.youtube.com/watch?v=b-AgF2G8lfI

Extended info
Apocalyptor Bass (2020-present)
Nunkiller Guitars (2020-present)
Smertenium Vocals, Drum Programming (2020-present)
See also: Cruentus Deus, Smertenium, ex-Kriegoat


Technical info

Input File: Destrowar - Angelcunt Destruction - 02 Burn the Holy Lies.mp3
Channels : 2
Sample Rate : 44100
Precision : 16-bit
Duration : 00:02:15.82 = 5989574 samples = 10186.4 CDDA sectors
File Size : 5.52M
Bit Rate : 325k
Sample Encoding: MPEG audio (layer I, II or III)
Comments :
Title=Burn the Holy Lies
Artist=Destrowar
Album=Angelcunt Destruction
Tracknumber=2
Year=2020



[ Hidden Text ]

Powered by Invision Power Board
© Invision Power Services