Printable Version of Topic

Click here to view this topic in its original format

Metal Area - Extreme Music Portal _ New Releases _ Sneglefeber - Sneglefeber (2020)

Posted by: VLADISLAV_V_K Sep 14 2020, 16:56:39

http://metalarea.org/images/audiocovers/2020_Sep/acov_tid341620.jpg

*Artist: Sneglefeber
*Album: Sneglefeber
*Year: 2020
*Genre: Doom/Sludge Metal
*Country: Denmark
*Format: mp3@CBR320kbps
*Size: 96MB

Tracklist:
01. Spawn of Grief 09:00
02. Fear of the Salt 12:44
03. Sneglefeber 08:32
04. Stankman 11:25
******************************
Total playing time: 41:41

https://sneglefeber.bandcamp.com/releases
https://music.yandex.ru/album/11924057?from=serp
https://www.facebook.com/sneglefeber/

Extended info


released September 4, 2020

Indspillet i Folkes garage april 2019.
Mixet af André Bugge i Mycelium Moss studio.
Mastereret af Emil Thomsen i ET studio.
Artwork af Søren Schjødt

Kørfirs Records 2020

***FLAC-Rip***


Technical info

Input File: 03-Sneglefeber.mp3
Channels : 2
Sample Rate : 44100
Precision : 16-bit
Duration : 00:08:32.11 = 22584007 samples = 38408.2 CDDA sectors
File Size : 20.5M
Bit Rate : 320k
Sample Encoding: MPEG audio (layer I, II or III)
Comments :
Title=Sneglefeber
Artist=Sneglefeber
Album=Sneglefeber
Tracknumber=3
Year=2020
Genre=Doom / Sludge Metal



[ Hidden Text ]

Posted by: VLADISLAV_V_K Sep 15 2020, 12:21:22

FLAC tracks
[ Hidden Text ]

Powered by Invision Power Board
© Invision Power Services