Printable Version of Topic

Click here to view this topic in its original format

Metal Area - Extreme Music Portal _ New Releases _ Chime - Just For Fun [demo] (1991)

Posted by: Proteus_666 Sep 15 2020, 13:40:49

http://metalarea.org/images/audiocovers/2020_Sep/acov_tid341647.png

*Artist: Chime
*Album: Just For Fun [demo]
*Year: 1991
*Genre: Heavy Metal
*Country: Germany
*Format: mp3@CBR192kbps
*Size: 26MB

Tracklist:
1. Saddam 04:14
2. Shadows Of The Night 04:51
3. Sweet Little Jeannie 03:12
4. Rock City 03:50
5. Angel Face 03:01
******************************
Total playing time: 19:08

Technical info

Input File: 01-Saddam.mp3
Channels : 2
Sample Rate : 44100
Precision : 16-bit
Duration : 00:04:14.60 = 11227948 samples = 19095.1 CDDA sectors
File Size : 6.11M
Bit Rate : 192k
Sample Encoding: MPEG audio (layer I, II or III)
Comments :
Title=Saddam
Artist=Chime
Album=Just For Fun (Demo)
Tracknumber=01
Year=1991
Genre=Heavy Metal/Hard Rock



[ Hidden Text ]

Powered by Invision Power Board
© Invision Power Services