Printable Version of Topic

Click here to view this topic in its original format

Metal Area - Extreme Music Portal _ New Releases _ Peer Pressure - Catharsis (2020)

Posted by: Andrew Sep 16 2020, 09:04:48

http://metalarea.org/images/audiocovers/2020_Sep/acov_tid341657.jpg

*Artist: Peer Pressure
*Album: Catharsis
*Year: 2020
*Genre: Hardcore/Punk/Metalcore/Female Vocal
*Country: Canada
*Format: mp3@CBR320kbps
*Size: 77MB

Tracklist:
01. Vixen
02. Stack the Cards
03. Atyches
04. Do a Number on Me
05. Cutthroat
06. Interlude
07. Suffocation (feat. Michael Landry)
08. The Better End
09. It Festers
10. Catharsis
******************************
Total playing time: 33:44

https://peerpressurehc.bandcamp.com/
https://www.facebook.com/PeerPressureHC/
https://www.youtube.com/watch?v=L9yp9bADdKM
https://www.youtube.com/watch?v=YU1cGDLFO3s

Technical info

Input File: 02. Stack the Cards.mp3
Channels : 2
Sample Rate : 44100
Precision : 16-bit
Duration : 00:03:27.45 = 9148677 samples = 15559 CDDA sectors
File Size : 8.34M
Bit Rate : 322k
Sample Encoding: MPEG audio (layer I, II or III)
Comments :
Title=Stack the Cards
Artist=Peer Pressure
Album=Catharsis
Tracknumber=2
Year=2020
Genre=Metal
Discnumber=1



[ Hidden Text ]

Powered by Invision Power Board
© Invision Power Services