Printable Version of Topic

Click here to view this topic in its original format

Metal Area - Extreme Music Portal _ New Releases _ Cosmic Rover - Spitting Fire (2020)

Posted by: Necrokilldozer Oct 6 2020, 18:28:56

http://metalarea.org/images/audiocovers/2020_Oct/acov_tid342286.jpg

*Artist: Cosmic Rover
*Album: Spitting Fire
*Year: 2020
*Genre: Stoner Metal
*Country: Brazil
*Format: mp3@CBR320kbps
*Size: 85MB

Tracklist:
1. Our Tattoos 04:29
2. Yesterday Was Crazy 02:25
3. Cosmic Rover 03:50
4. Spitting Fire 03:12
5. Electrify 03:52
6. Bright Highway 03:29
7. Never Forget 04:08
8. Lessons in a Bottle 04:11
9. Mushroom Memories 02:59
10. Space Mother Fucker 02:56
******************************
Total playing time: 35:31

https://cosmicrover.bandcamp.com/album/spitting-fire-full-album-2019

Extended info
Line - up:

Rodrigo Felix - Drums
Rick Rocha - Guitars
Edson Graceffi - Vocals, Drums (Panzer, Reviolence, ex-Hefestos, ex-Punch, ex-Chasing Fear)



Technical info

Input File: 06. Bright Highway.mp3
Channels : 2
Sample Rate : 44100
Precision : 16-bit
Duration : 00:03:29.62 = 9244286 samples = 15721.6 CDDA sectors
File Size : 8.45M
Bit Rate : 323k
Sample Encoding: MPEG audio (layer I, II or III)
Comments :
Title=Bright Highway
Artist=Cosmic Rover
Album=Spitting Fire
Tracknumber=6
Year=2019
Genre=Stoner Metal



[ Hidden Text ]

Posted by: Living_Beat Oct 7 2020, 10:04:45

А где стоунер-то? Среднетемпавый хевяк с хриплым вокалюгой, такое себе, не нра, тупняка нет.

Powered by Invision Power Board
© Invision Power Services