Printable Version of Topic

Click here to view this topic in its original format

Metal Area - Extreme Music Portal _ New Releases _ Reaper - Stranger Than Fiction (2020)

Posted by: Samaritianin Oct 16 2020, 16:33:00

https://metalarea.org/images/audiocovers/2020_Oct/acov_tid342649.jpg

*Artist: Reaper
*Album: Stranger Than Fiction
*Year: 2020
*Genre: Heavy/Thrash Metal
*Country: United Kingdom
*Format: mp3@CBR320kbps
*Size: 90MB

Tracklist:
01. Event Horizon 01:02
02. Sigil 04:08
03. The Titan 04:22
04. Upon the Sun 05:07
05. Flight 04:46
06. Jericho 03:49
07. Afterlife 06:59
08. Walk the Sky 07:41
******************************
Total playing time: 37:54

https://officialreaperuk.bandcamp.com/
https://www.facebook.com/OfficialReaperUK/

Extended info
Anthony Dalton Guitars (lead), Vocals (backing) (2010-present)
Daniel Moran Vocals (lead), Guitars (rhythm) (2010-present)
See also: Equinox, ex-Scare Tactics (live)
Elliott Kyriakides Bass (2018-present)
See also: Devils Henchmen
Anthony Longworth Drums (2018-present)



Technical info

Input File: 04 Upon the Sun.mp3
Channels : 2
Sample Rate : 44100
Precision : 16-bit
Duration : 00:05:06.62 = 13521766 samples = 22996.2 CDDA sectors
File Size : 12.7M
Bit Rate : 331k
Sample Encoding: MPEG audio (layer I, II or III)
Comments :
Title=Upon the Sun
Artist=Reaper
Album=Stranger Than Fiction
Tracknumber=4/8
Year=2020-20-20
Genre=Metal
Discnumber=1/1



[ Hidden Text ]

Powered by Invision Power Board
© Invision Power Services